Торренты   
 
 

 

Союз зверей / Konferenz der Tiere (Райнхард Клоосс) [2010 г., BDRip, 1080p, Full OverUnder]

Рейтинг 3D:
26 голосов
8.6
Рейтинг фильма:
27 голосов
8.5
 
Вы должны быть авторизированы,
чтобы ставить оценки


Союз зверей / Konferenz der Tiere
Год выпуска: 2010
Страна: Германия
Жанр: мультфильм, комедия, приключения, семейный
Продолжительность: 01:33:13
Перевод: Профессиональный (полное дублирование)
Режиссер: Райнхард Клоосс
В ролях: Вадим Галыгин, Илья Любимов, Тимур Родригез, Иван Жарков, Любовь Германова, Вероника Саркисова, Пётр Иващенко, Дмитрий Курта
Описание: Команда веселых зверей нашла зеленый оазис посреди засушливой африканской пустыни, чтобы там поселиться. Но их жизнь оказалась под угрозой - река Окаванго стала быстро пересыхать. Друзья выясняют, что в этом виноваты люди, которые построили дамбу. Звери, - такие разные, - от льва до трусливого суслика, - объединяются в союз, чтобы бросить вызов людям и спасти долину! Смешная ватага разношерстных, винторогих и парнокопытных устроит развеселую жизнь людям и наведет свой «порядок» на дамбе!
Формат 3d: OverUnder

Скриншоты



me

Общее
Уникальный идентификатор : 196540653526985027253700624449700806531 (0x93DC5A5DAA17DA9F8031ACF6E712BF83)
Полное имя : D:\Animals United.mkv
Формат : Matroska
Размер файла : 6,80 Гбайт
Продолжительность : 1 ч. 37 м.
Общий поток : 9931 Кбит/сек
Дата кодирования : UTC 2011-03-27 08:59:50
Программа кодирования : mkvmerge v3.4.0 ('Rapunzel') сборка от May 15 2010 09:38:20
Библиотека кодирования : libebml v0.8.0 + libmatroska v0.9.0
Видео
Идентификатор : 1
Формат : AVC
Формат/Информация : Advanced Video Codec
Профиль формата : High@L5.0
Параметр CABAC формата : Да
Параметр ReFrames формата : 4 кадры
Идентификатор кодека : V_MPEG4/ISO/AVC
Продолжительность : 1 ч. 37 м.
Битрейт : 9094 Кбит/сек
Ширина : 1920 пикс.
Высота : 1664 пикс.
Соотношение сторон : 1,154
Частота кадров : 23,976 кадр/сек
Цветовое пространство : YUV
Подвыборка цветности : 4:2:0
Битовая глубина : 8 бит
Тип развёртки : Прогрессивная
Бит/(Пиксели*Кадры) : 0.119
Размер потока : 6,22 Гбайт (92%)
Библиотека кодирования : x264 core 114 r1913 5fd3dce
Настройки программы : cabac=1 / ref=4 / deblock=1:-1:-1 / analyse=0x3:0x113 / me=umh / subme=9 / psy=1 / psy_rd=1.00:0.00 / mixed_ref=1 / me_range=16 / chroma_me=1 / trellis=2 / 8x8dct=1 / cqm=0 / deadzone=21,11 / fast_pskip=1 / chroma_qp_offset=-3 / threads=9 / sliced_threads=0 / nr=0 / decimate=1 / interlaced=0 / constrained_intra=0 / bframes=6 / b_pyramid=0 / b_adapt=2 / b_bias=0 / direct=3 / weightb=1 / open_gop=0 / weightp=2 / keyint=250 / keyint_min=23 / scenecut=40 / intra_refresh=0 / rc_lookahead=40 / rc=crf / mbtree=1 / crf=18.0 / qcomp=0.60 / qpmin=0 / qpmax=69 / qpstep=4 / ip_ratio=1.40 / aq=1:1.00
Язык : English
Аудио
Идентификатор : 2
Формат : AC-3
Формат/Информация : Audio Coding 3
Расширение режима : CM (complete main)
Идентификатор кодека : A_AC3
Продолжительность : 1 ч. 37 м.
Вид битрейта : Постоянный
Битрейт : 640 Кбит/сек
Канал(ы) : 6 канала(ов)
Расположение каналов : Front: L C R, Side: L R, LFE
Частота : 48,0 КГц
Битовая глубина : 16 бит
Метод сжатия : С потерями
Задержка видео : 6 с. 800 мс.
Размер потока : 449 Мбайт (6%)
Язык : Russian
Скрины сравнения http://screenshotcomparison.com/comparison/39357
Остальные раздачи этого фильма (5)
Благодарности релизеру (1)

Торрент:

Статус:

Размер:

Зарегистрирован   [ 2011-03-28 11:31 ]

проверено

6.8 GB

 
 Мнение о фильме (4)





Мульт хороший! Детям очень понравился. Сначала показал им в обычном режиме, а потом в 3D-восторг был неопесуемым!!!
 

Мне мульт показался полной чушью, качество отличное а физика движения и прорисовка в некоторых сценах средняя, по моему мнению.
 

У меня задний план раздваивается, регулровка не помогла. Мульт пришлось удалить. Жаль :(
 

Мультик сам по себе, на мой взгляд, заслуживает средней оценки, как по сюжету, так и по 3Д.