Торренты   
 
 

 

Sony Bravia 3D Demo Disc Vol 1 2010 [2010 г, 720p/60, Anamorph OverUnder]

Рейтинг 3D:
2 голосов
7.5
Рейтинг фильма:
1 голосов
7.0
 
Вы должны быть авторизированы,
чтобы ставить оценки


Sony Bravia 3D Demo Disc Vol 1 2010
Год выпуска: 2010
Жанр: Демо
Продолжительность: ~18 минут
Перевод: Не требуется
Описание: Наиболее интересные ролики с демо диска Sony Vol.1. Выкинул трейлеры уже вышедших фильмов и голимую рекламу.
Содержание:
06. Opening Video (2:31) 11,8 Mbps
08. MotorStorm Pacific Rift (игрушка) (1:07) 13,1 Mbps
10. FIFA Club World Cup 2010 (на самом деле это Арабские
Эмираты 2009) (1:40) 10,5 Mbps
18. Enjoy Full HD Video In 3D (принцип действия 3д ТВ) (0:49)
3,16 Mbps
25. Sony Aquarium (1:38) 13,3 Mbps
27. Super Stardust HD (игрушка) (0:44) 30,2 Mbps
39. Rio Carnival 2010 (Карнавал в Рио) (1:43) 34,1 Mbps
41. ESPN OSU Vs. USC College Football (амер."футбол") (3:13) 29,4 Mbps
60. WipeOut HD (игрушка) (0:44) 17,2 Mbps
73. Chaka Khan At Sony Open In Hawaii (с концерта) (1:17) 22,6 Mbps
77. Asahiyama Zoo (2:28) 18,7 Mbps
Формат 3d: Anamorph OverUnder
Доп.информация: Проверено на ТВ Самсунг.
Качество: BDRip
Контейнер: MKV
Видео: AVC / 1280х720p / 59.940 fps / 3,1-34,1 Mbps (точнее в Содержании)
Аудио: AC3 / 2ch / 192 Kbps / 48 KHz

MediaInfo первого ролика (остальные практически аналогичны, за исключением битрейта)

General
UniqueID : 195490907745822894933814430460781965666 (0x93122DE726493470AA58B177C55EB162)
Complete name : F:\Downloads\Sony-Demo\06-Opening Video.mkv
Format : Matroska
File size : 52.7 MiB
Duration : 36s 64ms
Overall bit rate : 12.3 Mbps
Encoded date : UTC 2011-03-28 10:22:48
Writing application : mkvmerge v4.4.0 ('Die Wiederkehr') сборка от Oct 31 2010 21:52:48
Writing library : libebml v1.0.0 + libmatroska v1.0.0
Video
ID : 1
Format : AVC
Format/Info : Advanced Video Codec
Format profile : High@L4.1
Format settings, CABAC : Yes
Format settings, ReFrames : 4 frames
Codec ID : V_MPEG4/ISO/AVC
Duration : 36s 69ms
Bit rate : 11.8 Mbps
Width : 1 280 pixels
Height : 720 pixels
Display aspect ratio : 0.889
Original display aspect ratio : 16:9
Frame rate : 59.940 fps
Color space : YUV
Chroma subsampling : 4:2:0
Bit depth : 8 bits
Scan type : Progressive
Bits/(Pixel*Frame) : 0.214
Stream size : 50.8 MiB (96%)
Writing library : x264 core 112 r1834 a51816a
Encoding settings : cabac=1 / ref=4 / deblock=1:-1:-1 / analyse=0x3:0x113 / me=umh / subme=9 / psy=1 / psy_rd=1.00:0.15 / mixed_ref=1 / me_range=16 / chroma_me=1 / trellis=2 / 8x8dct=1 / cqm=0 / deadzone=21,11 / fast_pskip=1 / chroma_qp_offset=-3 / threads=3 / sliced_threads=0 / nr=0 / decimate=1 / interlaced=0 / constrained_intra=0 / bframes=4 / b_pyramid=0 / b_adapt=2 / b_bias=0 / direct=3 / weightb=1 / open_gop=0 / weightp=2 / keyint=250 / keyint_min=25 / scenecut=40 / intra_refresh=0 / rc_lookahead=40 / rc=crf / mbtree=1 / crf=18.0 / qcomp=0.60 / qpmin=10 / qpmax=51 / qpstep=4 / vbv_maxrate=50000 / vbv_bufsize=50000 / crf_max=0.0 / ip_ratio=1.40 / aq=1:1.00 / nal_hrd=none
Audio
ID : 2
Format : AC-3
Format/Info : Audio Coding 3
Mode extension : CM (complete main)
Codec ID : A_AC3
Duration : 36s 64ms
Bit rate mode : Constant
Bit rate : 192 Kbps
Channel(s) : 2 channels
Channel positions : Front: L R
Sampling rate : 48.0 KHz
Bit depth : 16 bits
Compression mode : Lossy
Stream size : 845 KiB (2%)

Скриншоты


Благодарности релизеру (2)

Торрент:

Статус:

Размер:

Зарегистрирован   [ 2011-03-28 17:57 ]

проверено

2.35 GB