Торренты   
 
 

 

IMAX. Динозавры: Гиганты Патагонии / Dinosaurs: Giants of Patagonia [2007 г, 720p, OverUnder]

Рейтинг 3D:
35 голосов
8.7
Рейтинг фильма:
30 голосов
8.3
 
Вы должны быть авторизированы,
чтобы ставить оценки


IMAX. Динозавры: Гиганты Патагонии / Dinosaurs: Giants of Patagonia
Год выпуска: 2007
Страна: Канада
Жанр: Документальный
Продолжительность: 00:40:32
Перевод: Профессиональный (одноголосый)
Режиссер: Марк Фафар / Marc Fafard
Описание: Если бы не серия катаклизмов, начатая падением метеорита, наша планета до сих пор могла бы быть населена динозаврами.
Динозавры настолько поразительны, что немало людей мечтает, чтобы они и сейчас жили среди нас. К счастью, с появлением "Динозавров 3D" у вас появляется возможность оказаться среди этих удивительных созданий, не ставя под угрозу свою жизнь и существование всего человечества.
Вслед за профессором Рудольфо Гориа, всемирно известным Аргентинским палеонтологом, вы посетите места его важнейших открытий в Патагонии и вернетесь назад во времени, чтобы увидеть рождение этих невероятных созданий. Патагония подарила нам самое большое живое существо, когда-либо бродившее по Земле — огромного травоядного Аргентинозавра, а также и его врага Гигантозавра, двуногого хищника, который легко поспорит со знаменитым Т-Рексом.
Релиз:
Формат 3d: OverUnder
Качество: BDRip
Контейнер: MKV
Видео: AVC / 1280х720p / 23,976 fps / 13,8 Mbps
Аудио [rus]: AC3 / 2 ch / 192 Kbps / 48 KHz
Аудио [eng]: DTS / 6 ch / 1510 Kbps / 48 KHz

MediaInfo

General
UniqueID : 241549744223156064493840967180823313836 (0xB5B8C9DE23F96433A52801CB38503DAC)
Complete name : F:\Downloads\Dinosaurs.Patagonia.720p.mkv
Format : Matroska
File size : 4.48 GiB
Duration : 40mn 34s
Overall bit rate : 15.8 Mbps
Encoded date : UTC 2011-03-29 07:57:15
Writing application : mkvmerge v4.4.0 ('Die Wiederkehr') сборка от Oct 31 2010 21:52:48
Writing library : libebml v1.0.0 + libmatroska v1.0.0
Video
ID : 1
Format : AVC
Format/Info : Advanced Video Codec
Format profile : High@L5.0
Format settings, CABAC : Yes
Format settings, ReFrames : 5 frames
Codec ID : V_MPEG4/ISO/AVC
Duration : 40mn 34s
Bit rate : 13.8 Mbps
Width : 1 280 pixels
Height : 1 440 pixels
Display aspect ratio : 0.889
Frame rate : 23.976 fps
Color space : YUV
Chroma subsampling : 4:2:0
Bit depth : 8 bits
Scan type : Progressive
Bits/(Pixel*Frame) : 0.312
Stream size : 3.91 GiB (87%)
Writing library : x264 core 112 r1834 a51816a
Encoding settings : cabac=1 / ref=5 / deblock=1:-1:-1 / analyse=0x3:0x113 / me=umh / subme=9 / psy=1 / psy_rd=1.00:0.15 / mixed_ref=1 / me_range=16 / chroma_me=1 / trellis=2 / 8x8dct=1 / cqm=0 / deadzone=21,11 / fast_pskip=1 / chroma_qp_offset=-3 / threads=3 / sliced_threads=0 / nr=0 / decimate=1 / interlaced=0 / constrained_intra=0 / bframes=6 / b_pyramid=0 / b_adapt=2 / b_bias=0 / direct=3 / weightb=1 / open_gop=0 / weightp=2 / keyint=250 / keyint_min=23 / scenecut=40 / intra_refresh=0 / rc_lookahead=40 / rc=crf / mbtree=1 / crf=18.0 / qcomp=0.60 / qpmin=10 / qpmax=51 / qpstep=4 / vbv_maxrate=50000 / vbv_bufsize=50000 / crf_max=0.0 / ip_ratio=1.40 / aq=1:1.00 / nal_hrd=none
Audio #1
ID : 2
Format : AC-3
Format/Info : Audio Coding 3
Mode extension : CM (complete main)
Codec ID : A_AC3
Duration : 40mn 34s
Bit rate mode : Constant
Bit rate : 192 Kbps
Channel(s) : 2 channels
Channel positions : Front: L R
Sampling rate : 48.0 KHz
Bit depth : 16 bits
Compression mode : Lossy
Stream size : 55.7 MiB (1%)
Language : Russian
Audio #2
ID : 3
Format : DTS
Format/Info : Digital Theater Systems
Codec ID : A_DTS
Duration : 40mn 34s
Bit rate mode : Constant
Bit rate : 1 510 Kbps
Channel(s) : 6 channels
Channel positions : Front: L C R, Side: L R, LFE
Sampling rate : 48.0 KHz
Bit depth : 24 bits
Compression mode : Lossy
Stream size : 438 MiB (10%)
Language : English
Menu
00:00:00.000 : :CHAPTER01=00:00:00.000
00:02:16.803 : :CHAPTER02=00:02:16.803
00:03:12.692 : :CHAPTER03=00:03:12.692
00:06:32.058 : :CHAPTER04=00:06:32.058
00:07:22.942 : :CHAPTER05=00:07:22.942
00:10:43.142 : :CHAPTER06=00:10:43.142
00:14:20.860 : :CHAPTER07=00:14:20.860
00:21:51.101 : :CHAPTER08=00:21:51.101
00:25:37.077 : :CHAPTER09=00:25:37.077
00:28:45.515 : :CHAPTER10=00:28:45.515
00:31:23.924 : :CHAPTER11=00:31:23.924
00:33:12.032 : :CHAPTER12=00:33:12.032
00:35:10.650 : :CHAPTER13=00:35:10.650
00:37:07.767 : :CHAPTER14=00:37:07.767
00:39:07.887 : :CHAPTER15=00:39:07.887

Скриншоты

Выбраны те же кадры, что и в раздаче http://torrents3d.ru/viewtopic.php?t=1306 - посему желающие могут сравнить с БД и другими релизами

Лог

Остальные раздачи этого фильма (4)
Благодарности релизеру (5)

Торрент:

Статус:

Размер:

Зарегистрирован   [ 2011-03-29 12:49 ]

проверено

4.48 GB

 
 Мнение о фильме (7)





Спасибо !!! прикольный фильм !!!
 

вылеты какие нибудь есть??как качество 3D? Отпишитесь кто смотрел.Стоит скачивать или нет
 

Не так вникал в сюжет, как наслаждался красивыми пейзажами и хорошим 3Д !! =)
 

3d - very goooooodddd
 

Замечательный и познавательный фильм!3Д тоже хорошее, что очень порадовало.
 

фильм нормуль. 3д норма.
 

Станьте на раздачу,плииззз!