Торренты   
 
 

 

Акулы / Sharks [2004 г, 1080p, Anamorph OverUnder]

Рейтинг 3D:
1 голосов
9.0
Рейтинг фильма:
1 голосов
8.0
 
Вы должны быть авторизированы,
чтобы ставить оценки


Акулы / Sharks
Год выпуска: 2004
Страна: Франция, Великобритания
Жанр: Документальный
Продолжительность: 00:41:33
Перевод: Профессиональный (одноголосый)
Режиссер: Жан-Жак Мантелло / Jean-Jacques Mantello
Описание: Представленный Жаном-Мишелем Кусто трехмерный фильм «Акулы 3D» — это захватывающее зрелище, где публика имеет возможность буквально лицом к лицу встретиться со «львами» и «тиграми» мирового океана. Среди них — большая белая, китовая и рыба-молот.
Познакомьтесь с ними в их естественной среде обитания, постаравшись увидеть в них не пресловутых хищников-людоедов, а просто больших и красивых рыб, существовавших на Земле еще задолго до появления динозавров. Присоединяйтесь к команде опытных исследователей моря, которые отправляются в новую кругосветную экспедицию, чтобы запечатлеть на пленку жизнь самых опасных хищников мирового океана.
Релиз:
Формат 3d: Anamorph OverUnder
Качество: BDRip
Контейнер: MKV
Видео: AVC / 1920х1080p / 23,976 fps / 14,4 Mbps
Аудио [rus]: AC3 / 6ch / 448 Kbps / 48 KHz
Аудио [eng]: DTS Hi-Res / 6 ch / 2046 kbps / 48 KHz

MediaInfo

General
UniqueID : 252861814119457291480166883692822057649 (0xBE3B69F9504A812D828BB05949D6D2B1)
Complete name : F:\Downloads\Sharks.1080a.mkv
Format : Matroska
File size : 5.02 GiB
Duration : 41mn 35s
Overall bit rate : 17.3 Mbps
Encoded date : UTC 2011-03-30 22:27:51
Writing application : mkvmerge v4.4.0 ('Die Wiederkehr') сборка от Oct 31 2010 21:52:48
Writing library : libebml v1.0.0 + libmatroska v1.0.0
Video
ID : 1
Format : AVC
Format/Info : Advanced Video Codec
Format profile : High@L4.1
Format settings, CABAC : Yes
Format settings, ReFrames : 4 frames
Format settings, GOP : M=1, N=48
Codec ID : V_MPEG4/ISO/AVC
Duration : 41mn 35s
Bit rate : 14.4 Mbps
Width : 1 920 pixels
Height : 1 080 pixels
Display aspect ratio : 0.889
Original display aspect ratio : 16:9
Frame rate : 23.976 fps
Color space : YUV
Chroma subsampling : 4:2:0
Bit depth : 8 bits
Scan type : Progressive
Bits/(Pixel*Frame) : 0.290
Stream size : 4.19 GiB (84%)
Writing library : x264 core 112 r1867 22bfd31
Encoding settings : cabac=1 / ref=4 / deblock=1:-1:-1 / analyse=0x3:0x113 / me=umh / subme=9 / psy=1 / psy_rd=1.00:0.15 / mixed_ref=1 / me_range=16 / chroma_me=1 / trellis=2 / 8x8dct=1 / cqm=0 / deadzone=21,11 / fast_pskip=1 / chroma_qp_offset=-3 / threads=3 / sliced_threads=0 / nr=0 / decimate=1 / interlaced=0 / constrained_intra=0 / bframes=4 / b_pyramid=0 / b_adapt=2 / b_bias=0 / direct=3 / weightb=1 / open_gop=0 / weightp=2 / keyint=250 / keyint_min=23 / scenecut=40 / intra_refresh=0 / rc_lookahead=40 / rc=crf / mbtree=1 / crf=18.0 / qcomp=0.60 / qpmin=10 / qpmax=51 / qpstep=4 / vbv_maxrate=50000 / vbv_bufsize=50000 / crf_max=0.0 / nal_hrd=none / ip_ratio=1.40 / aq=1:1.00
Audio #1
ID : 2
Format : AC-3
Format/Info : Audio Coding 3
Mode extension : CM (complete main)
Codec ID : A_AC3
Duration : 41mn 35s
Bit rate mode : Constant
Bit rate : 448 Kbps
Channel(s) : 6 channels
Channel positions : Front: L C R, Side: L R, LFE
Sampling rate : 48.0 KHz
Bit depth : 16 bits
Compression mode : Lossy
Stream size : 133 MiB (3%)
Language : Russian
Audio #2
ID : 3
Format : DTS
Format/Info : Digital Theater Systems
Format profile : HRA
Codec ID : A_DTS
Duration : 41mn 35s
Bit rate mode : Constant
Bit rate : 2 047 Kbps
Channel(s) : 6 channels
Channel positions : Front: L C R, Side: L R, LFE
Sampling rate : 48.0 KHz
Bit depth : 16 bits
Compression mode : Lossy
Stream size : 609 MiB (12%)
Language : English

Скриншоты

Сравнение скриншотов

Blu-Ray Этот релиз Fab-рип


Лог кодирования

Благодарности релизеру (4)

Торрент:

Статус:

Размер:

Зарегистрирован   [ 2011-03-31 02:40 ]

проверено

5.02 GB