Торренты   
 
 


Битва за планету Терра / Battle for Terra (Аристоменис Тсирбас) [2009 г., BDRip, 1080p, Full OverUnder]

Рейтинг 3D:
16 голосов
6.7
Рейтинг фильма:
13 голосов
8.2
 
Вы должны быть авторизированы,
чтобы ставить оценки


Битва за планету Терра / Battle for Terra
Год выпуска: 2009
Страна: США
Жанр: фантастика, боевик, триллер, приключения, мультфильм
Продолжительность: 01:19:09
Перевод: Профессиональный (полное дублирование)
Режиссер: Аристоменис Тсирбас
В ролях: Чед Аллен, Розанна Аркетт, Билл Бирч, Брук Блум, Том Коннолли, Брайан Кокс, Дэвид Кросс, Беверли Д`Анджело, Джим Девоти, Крис Эванс и др.
Описание: Когда на планете Земля пересохли все реки, исчезли леса, а воздух превратился в пыль, люди исколесили Галактику, чтобы найти себе новый дом. Прекрасная планета Терра стала надеждой людей на спасение. Хитроумное устройство землян Терраформер должен превратить Терру в рай для людей и кошмар для коренных жителей. Катастрофа для террианцев неизбежна, они обречены. Счет идет на дни и часы. И все бы шло по плану, если не одна случайность. Девочка с Терры Молу подбирает раненого пилота — землянина. Они становятся лучшими друзьями и вместе находят хитрый способ спасти Терру — последнюю живую планету Галактики. Они не подозревают, что сразу окажутся в центре бурных, опасных, веселых и удивительных событий…
Формат 3d: OverUnder

Скриншоты



me

Общее
Уникальный идентификатор : 231103114838864172525759273082049265170 (0xADDCD745F05C5DA9A1726E5D92A3FE12)
Полное имя : D:\Battle for Terra.mkv
Формат : Matroska
Размер файла : 5,38 Гбайт
Продолжительность : 1 ч. 19 м.
Общий поток : 9726 Кбит/сек
Дата кодирования : UTC 2011-03-31 15:57:40
Программа кодирования : mkvmerge v3.4.0 ('Rapunzel') сборка от May 15 2010 09:38:20
Библиотека кодирования : libebml v0.8.0 + libmatroska v0.9.0
Видео
Идентификатор : 1
Формат : AVC
Формат/Информация : Advanced Video Codec
Профиль формата : High@L5.0
Параметр CABAC формата : Да
Параметр ReFrames формата : 4 кадры
Идентификатор кодека : V_MPEG4/ISO/AVC
Продолжительность : 1 ч. 19 м.
Битрейт : 8445 Кбит/сек
Ширина : 1920 пикс.
Высота : 1632 пикс.
Соотношение сторон : 1,176
Частота кадров : 23,976 кадр/сек
Цветовое пространство : YUV
Подвыборка цветности : 4:2:0
Битовая глубина : 8 бит
Тип развёртки : Прогрессивная
Бит/(Пиксели*Кадры) : 0.112
Размер потока : 4,67 Гбайт (87%)
Библиотека кодирования : x264 core 114 r1913 5fd3dce
Настройки программы : cabac=1 / ref=4 / deblock=1:-1:-1 / analyse=0x3:0x113 / me=umh / subme=9 / psy=1 / psy_rd=1.00:0.00 / mixed_ref=1 / me_range=16 / chroma_me=1 / trellis=2 / 8x8dct=1 / cqm=0 / deadzone=21,11 / fast_pskip=1 / chroma_qp_offset=-3 / threads=9 / sliced_threads=0 / nr=0 / decimate=1 / interlaced=0 / constrained_intra=0 / bframes=6 / b_pyramid=0 / b_adapt=2 / b_bias=0 / direct=3 / weightb=1 / open_gop=0 / weightp=2 / keyint=250 / keyint_min=23 / scenecut=40 / intra_refresh=0 / rc_lookahead=40 / rc=crf / mbtree=1 / crf=18.0 / qcomp=0.60 / qpmin=0 / qpmax=69 / qpstep=4 / ip_ratio=1.40 / aq=1:1.00
Язык : English
Аудио #1
Идентификатор : 2
Формат : AC-3
Формат/Информация : Audio Coding 3
Расширение режима : CM (complete main)
Идентификатор кодека : A_AC3
Продолжительность : 1 ч. 19 м.
Вид битрейта : Постоянный
Битрейт : 448 Кбит/сек
Канал(ы) : 6 канала(ов)
Расположение каналов : Front: L C R, Side: L R, LFE
Частота : 48,0 КГц
Битовая глубина : 16 бит
Метод сжатия : С потерями
Размер потока : 254 Мбайт (5%)
Язык : Russian
Аудио #2
Идентификатор : 3
Формат : AC-3
Формат/Информация : Audio Coding 3
Расширение режима : CM (complete main)
Идентификатор кодека : A_AC3
Продолжительность : 1 ч. 19 м.
Вид битрейта : Постоянный
Битрейт : 640 Кбит/сек
Канал(ы) : 6 канала(ов)
Расположение каналов : Front: L C R, Side: L R, LFE
Частота : 48,0 КГц
Битовая глубина : 16 бит
Метод сжатия : С потерями
Размер потока : 362 Мбайт (7%)
Язык : English
Скрины сравнения: http://screenshotcomparison.com/comparison/40142
Остальные раздачи этого фильма (5)
Благодарности релизеру (1)

Торрент:

Статус:

Размер:

Зарегистрирован   [ 2011-03-31 20:32 ]

проверено

5.38 GB

 
 Мнение о фильме (5)





Мульт фигня.
 

Отличный мультик и 3D на высоте,полно вылетов!Мне понравился!
 

Кому как, а лично мне понравился. И 3D и сам фильм очень хорошие!
 

Все на высоте.СПАСИБО)))
 

Плизз, станьте на раздачу! Неделю ни одного байта