Торренты   
 
 

 

IMAX. Телескоп Хаббл в 3D / Hubble 3D (Тони Майерс) [2010 г., 1080p, Anamorph SideBySide]

Рейтинг 3D:
37 голосов
8.1
Рейтинг фильма:
33 голосов
7.9
 
Вы должны быть авторизированы,
чтобы ставить оценки


IMAX .Телескоп Хаббл в 3D / Hubble 3D
Год выпуска: 2010
Страна: США
Жанр: Документальный
Продолжительность: 00:44:00
Перевод: Отсутствует
Режиссер: Тони Майерс
В ролях: Леонардо Ди Каприо, К. Меган МакАртур, Скотт Д. Олтмэн, Майкл Т. Гуд, John M. Grunsfeld, Грегори С. Джонсон, Майкл Дж. Массимино
Описание: Используя визуальную мощь кинотеатров IMAX®, Hubble 3D позволит кинозрителям путешествовать через отдаленные галактики, исследовать великолепие и тайны нашей вселенной, и сопровождать работу астронавтов, на плечи которых возложены самые трудные и важные задачи в истории НАСА. Благодаря космическому телескопу Хаббл мы увидим вселенную такой, какой ее только можно увидеть в космосе с помощью самого мощного в мире телескопа.
Формат 3d: Anamorph SideBySide
Порядок ракурсов: Параллельная пара

Скриншоты




МедиаИнфо

Общее
Уникальный идентификатор : 212283723276404273441790330718352967052 (0x9FB45BA1B85D8186B2E5CFA49266058C)
Полное имя : D:\Хаббл 3Д\I_M_HUB_008_3D4U.mkv
Формат : Matroska
Размер файла : 4,02 Гбайт
Продолжительность : 43 м.
Общий поток : 13,1 Мбит/сек
Название фильма : Hubble_3D.Title1000.Bluray3DRip
Дата кодирования : UTC 2011-03-30 20:36:07
Программа кодирования : mkvmerge v4.6.0 ('Still Crazy After All These Years') built on Mar 10 2011 02:50:32
Библиотека кодирования : libebml v1.2.0 + libmatroska v1.1.0
Видео
Идентификатор : 1
Формат : AVC
Формат/Информация : Advanced Video Codec
Профиль формата : High@L4.1
Параметр CABAC формата : Да
Параметр ReFrames формата : 2 кадры
Режим смешивания : Header stripping
Идентификатор кодека : V_MPEG4/ISO/AVC
Продолжительность : 43 м.
Вид битрейта : Переменный
Битрейт : 11,3 Мбит/сек
Максимальный битрейт : 30,0 Мбит/сек
Ширина : 1920 пикс.
Высота : 1080 пикс.
Соотношение сторон : 16:9
Частота кадров : 23,976 кадр/сек
Цветовое пространство : YUV
Подвыборка цветности : 4:2:0
Битовая глубина : 8 бит
Тип развёртки : Прогрессивная
Бит/(Пиксели*Кадры) : 0.228
Размер потока : 3,48 Гбайт (86%)
Библиотека кодирования : x264 core
Основные цвета : BT.709-5, BT.1361, IEC 61966-2-4, SMPTE RP177
Характеристики трансфера : BT.709-5, BT.1361
Коэффициенты матрицы : BT.709-5, BT.1361, IEC 61966-2-4 709, SMPTE RP177
Аудио
Идентификатор : 2
Формат : DTS
Формат/Информация : Digital Theater Systems
Идентификатор кодека : A_DTS
Продолжительность : 43 м.
Вид битрейта : Постоянный
Битрейт : 1510 Кбит/сек
Канал(ы) : 6 канала(ов)
Расположение каналов : Front: L C R, Side: L R, LFE
Частота : 48,0 КГц
Битовая глубина : 24 бит
Метод сжатия : С потерями
Размер потока : 475 Мбайт (12%)
Язык : English
Остальные раздачи этого фильма (7)
Благодарности релизеру (4)

Торрент:

Статус:

Размер:

Зарегистрирован   [ 2011-04-01 19:38 ]

проверено

4.04 GB

 
 Мнение о фильме (3)





От фильма ожидал совершенно другое. Это произведение могу охарактеризовать как семейный фильм о том как наспех обученные американские астронавты "съездили" в космос да еще заодно починили телескоп.
 

в открытом космосе суперрррррррр!!!!!!!!!!
 

3D отличное, за исключением некоторых моментов, когда просто идет разговор. Сценарий самого фильма для документального фильма очень даже ничего, людям заинтересованным в астрономии будет увлекательно.