Торренты   
 
 


Территория тьмы В 3Д / Dark Country in 3D (Томас Джейн / Thomas Jane) [2009 г., Anamorph SideBySide]

Рейтинг 3D:
Пока никто не голосовал
Рейтинг фильма:
Пока никто не голосовал
 
Вы должны быть авторизированы,
чтобы ставить оценки


Территория тьмы В 3Д / Dark Country in 3D
Год выпуска: 2009
Страна: США
Жанр: триллер, криминал, детектив
Продолжительность: 01:28
Перевод: Профессиональный (полное дублирование)
Режиссер: Томас Джейн / Thomas Jane
В ролях: Томас Джейн (Dick / Bloodyface), Лорен Джерман (Gina), Рон Перлман (Deputy Thompson), Крис Браунинг (Stranger), Кон Шелл (Bloodyface Double), Рене Муссе (Crime Scene Trooper), Хезер Хэйс (Wakeup Call, озвучка, в титрах не указан), Никки Келли (Alternate Woman, в титрах не указан), Эйнн Кирби (Coroner, в титрах не указан), Джонатан Ланд (Crime Scene Paramedic, в титрах не указан)
Описание: Парочка молодоженов, Джина и Ричард, во время ночной поездки через пустыню сбивают мужчину. Подобрав раненого, влюбленные едут за помощью, но очнувшийся пассажир набрасывается на них…
Формат 3d: Anamorph SideBySide
Порядок ракурсов: Параллельная пара

Скриншоты




[URL=http://fastpic.ru/view/19/2011/0402

Информация о файле

Общее
Уникальный идентификатор : 205269135170304369620441211650404606745 (0x9A6D65BC8CD29AF0AE7A7772D7F16319)
Полное имя : D:\Территория тьмы.D_C_009_3d4U (1).mkv
Формат : Matroska
Размер файла : 8,34 Гбайт
Продолжительность : 1 ч. 28 м.
Общий поток : 13,6 Мбит/сек
Название фильма : DARK_COUNTRY_3D.Title1.Bluray3DRip
Дата кодирования : UTC 2011-04-02 17:25:00
Программа кодирования : mkvmerge v4.0.0 ('The Stars were mine') сборка от Jun 11 2010 23:24:27
Библиотека кодирования : libebml v1.0.0 + libmatroska v1.0.0
Видео
Идентификатор : 1
Формат : AVC
Формат/Информация : Advanced Video Codec
Профиль формата : High@L4.1
Параметр CABAC формата : Да
Параметр ReFrames формата : 2 кадры
Идентификатор кодека : V_MPEG4/ISO/AVC
Продолжительность : 1 ч. 28 м.
Вид битрейта : Переменный
Битрейт : 11,8 Мбит/сек
Максимальный битрейт : 18,1 Мбит/сек
Ширина : 1920 пикс.
Высота : 1080 пикс.
Соотношение сторон : 16:9
Частота кадров : 23,976 кадр/сек
Цветовое пространство : YUV
Подвыборка цветности : 4:2:0
Битовая глубина : 8 бит
Тип развёртки : Прогрессивная
Бит/(Пиксели*Кадры) : 0.237
Размер потока : 7,25 Гбайт (87%)
Язык : English
Аудио
Идентификатор : 2
Формат : DTS
Формат/Информация : Digital Theater Systems
Идентификатор кодека : A_DTS
Продолжительность : 1 ч. 28 м.
Вид битрейта : Постоянный
Битрейт : 1510 Кбит/сек
Канал(ы) : 6 канала(ов)
Расположение каналов : Front: L C R, Side: L R, LFE
Частота : 48,0 КГц
Битовая глубина : 24 бит
Метод сжатия : С потерями
Размер потока : 952 Мбайт (11%)
Заголовок : DTS_1509kbps
Язык : Russian
Текст
Идентификатор : 3
Формат : UTF-8
Идентификатор кодека : S_TEXT/UTF8
Идентификатор кодека/Информация : UTF-8 Plain Text
Язык : Russian
Благодарности релизеру (1)

Торрент:

Статус:

Размер:

Зарегистрирован   [ 2011-04-02 22:37 ]

© закрыто правообладателем

8.34 GB