Торренты   
 
 

 

Рапунцель: Запутанная история 3D / Таnglеd 3D (Натан Грено, Байрон Ховард) [2010 г., 720p, OverUnder]

Рейтинг 3D:
102 голосов
8.7
Рейтинг фильма:
107 голосов
8.7
 
Вы должны быть авторизированы,
чтобы ставить оценки


© Закрыто правообладателем
Год выпуска: 2010
Страна: США
Жанр: мультфильм, мюзикл, фэнтези, мелодрама, комедия
Продолжительность: 01:40:16
Перевод: Профессиональный (полное дублирование)
Режиссер: Натан Грено, Байрон Ховард
Роли озвучивали: Мэнди Мур, Захари Левай, Донна Мерфи, Рон Перлман, М. К. Гейни, Джефри Тэмбор, Брэд Гэррет, Пол Ф. Томпкинс, Ричард Кил, Делани Роуз Стейн
Описание: Обаятельный разбойник Флинн путешествует по жизни с легкостью, лишь потому, что он красив, болтлив и удачлив. И казалось, фортуна всегда на его стороне, пока однажды он не выбирает высокую башню в густой чаще леса в качестве «спокойного» убежища. Флинн оказывается связанным по рукам и ногам юной красавицей по имени Рапунцель.
Если вы думаете, что самое интересное в ней — это 21 метр волшебных золотистых волос, то вы заблуждаетесь! Запертая в башне и отчаянно ищущая приключений, Рапунцель решает использовать Флинна в качестве билета в большой мир. Сначала комичное похищение, затем невинный шантаж — и вот наши герои на воле. Вместе с главными героями в авантюрное путешествие отправятся бравый конь-ищейка Максимус, ручной хамелеон и шайка сумасбродных разбойников.-Релиз группы:

Формат 3d: OverUnder
Видео: MPEG4 Video (H264) 1280x1440 23.976 кадр/сек 6764 Кбит/сек
Аудио Rus: AC3, 6 каналов, 640 Кбит/сек, 48,0 КГц
Аудио Eng: AC3, 6 каналов, 384 Кбит/сек, 48,0 КГц
Субтитры: Russian R5, English, UTF-8

Скриншоты



MI

Общее
Уникальный идентификатор : 216025939657908871232919258588826746899 (0xA2851524F4C47430AAC266B244BEC013)
Полное имя : L:\3D\РИПЫ 3D-RuGroup\Таnglеd.3DBDRip.720p.Rus.Eng.3D-RuGroup.mkv
Формат : Matroska
Размер файла : 5,57 Гбайт
Продолжительность : 1 ч. 40 м.
Общий поток : 7946 Кбит/сек
Дата кодирования : UTC 2011-04-03 11:11:06
Программа кодирования : mkvmerge v3.4.0 ('Rapunzel') сборка от May 15 2010 09:38:20
Библиотека кодирования : libebml v0.8.0 + libmatroska v0.9.0
Видео
Идентификатор : 1
Формат : AVC
Формат/Информация : Advanced Video Codec
Профиль формата : High@L4.0
Параметр CABAC формата : Да
Параметр ReFrames формата : 4 кадры
Идентификатор кодека : V_MPEG4/ISO/AVC
Продолжительность : 1 ч. 40 м.
Битрейт : 6764 Кбит/сек
Ширина : 1280 пикс.
Высота : 1440 пикс.
Соотношение сторон : 0,889
Частота кадров : 23,976 кадр/сек
Цветовое пространство : YUV
Подвыборка цветности : 4:2:0
Битовая глубина : 8 бит
Тип развёртки : Прогрессивная
Бит/(Пиксели*Кадры) : 0.153
Размер потока : 4,74 Гбайт (85%)
Библиотека кодирования : x264 core 114 r1913 5fd3dce
Настройки программы : cabac=1 / ref=4 / deblock=1:-3:-3 / analyse=0x3:0x133 / me=umh / subme=10 / psy=1 / psy_rd=1.00:0.10 / mixed_ref=1 / me_range=48 / chroma_me=1 / trellis=2 / 8x8dct=1 / cqm=0 / deadzone=21,11 / fast_pskip=0 / chroma_qp_offset=-3 / threads=3 / sliced_threads=0 / nr=0 / decimate=1 / interlaced=0 / constrained_intra=0 / bframes=7 / b_pyramid=2 / b_adapt=2 / b_bias=0 / direct=3 / weightb=1 / open_gop=0 / weightp=2 / keyint=250 / keyint_min=23 / scenecut=40 / intra_refresh=0 / rc_lookahead=60 / rc=crf / mbtree=1 / crf=16.5 / qcomp=0.70 / qpmin=0 / qpmax=51 / qpstep=4 / ip_ratio=1.40 / aq=1:0.90
Аудио #1
Идентификатор : 2
Формат : AC-3
Формат/Информация : Audio Coding 3
Расширение режима : CM (complete main)
Идентификатор кодека : A_AC3
Продолжительность : 1 ч. 40 м.
Вид битрейта : Постоянный
Битрейт : 640 Кбит/сек
Канал(ы) : 6 канала(ов)
Расположение каналов : Front: L C R, Side: L R, LFE
Частота : 48,0 КГц
Битовая глубина : 16 бит
Метод сжатия : С потерями
Размер потока : 459 Мбайт (8%)
Заголовок : Дубляж
Аудио #2
Идентификатор : 3
Формат : AC-3
Формат/Информация : Audio Coding 3
Расширение режима : CM (complete main)
Идентификатор кодека : A_AC3
Продолжительность : 1 ч. 40 м.
Вид битрейта : Постоянный
Битрейт : 384 Кбит/сек
Канал(ы) : 6 канала(ов)
Расположение каналов : Front: L C R, Side: L R, LFE
Частота : 48,0 КГц
Битовая глубина : 16 бит
Метод сжатия : С потерями
Размер потока : 275 Мбайт (5%)
Заголовок : Оригинал
Текст #1
Идентификатор : 4
Формат : UTF-8
Идентификатор кодека : S_TEXT/UTF8
Идентификатор кодека/Информация : UTF-8 Plain Text
Заголовок : Russian R5
Язык : Russian
Текст #2
Идентификатор : 5
Формат : UTF-8
Идентификатор кодека : S_TEXT/UTF8
Идентификатор кодека/Информация : UTF-8 Plain Text
Заголовок : English
Язык : English
Меню
00:00:00.000 : :The Lost Princess
00:08:20.291 : :Mother Knows Best
00:15:42.608 : :Meet Flynn Rider
00:24:40.562 : :Making A Deal
00:34:41.496 : :The Snuggly Duckling
00:42:30.214 : :The Escape
00:50:25.272 : :In The Woods
00:59:21.266 : :The Best Day Of Your Life
01:10:34.981 : :Betrayed
01:19:22.758 : :The Rescue
01:25:21.366 : :New Dream
01:31:20.225 : :End Credits
Остальные раздачи этого фильма (5)
Благодарности релизеру (2)

Торрент:

Статус:

Размер:

Зарегистрирован   [ 2011-11-06 13:00 ]

проверено

5.57 GB

 
 Мнение о фильме (26)

1, 2  След.






Отличный мульт сам по себе, а в 3Д так вообще!
 

Обалденный мульт. Рекомендую
 

спасибо за интересный мульт, дочка в восторге.
 

Большое спасибо! Мультфильм супер и качество обалденное!
 

Мультфильм действительно прикольный, интересный. Три ДДД тоже хорошего качества :-)
 

Замечательный мультик, в лучших традициях диснеевских принцесс! А в 3Д вообще здорово смотреть: позитивных эмоций от просмотра столько же, сколько у четырехлетней дочки :)
 

Лучший мульт!!!
 

замечательный мультик очень понравился!!!
 

дети в восторге
 

А с чего этот мульт стоит опять на скачивании?
 

Mazara, потому что правообладатели предыдущую закрыли
 

Спасибо! Понравился и дитю и взрослым :) Со смыслом мульт.
 

Милая ,добрая сказка!!!Достойное 3D!!Хорошая работа релизера,СПАСИБО!!!
 

Отличный мульт
 

ОТЛИЧНЫЙ МУЛЬТ -РЕКОМЕНДУЮ, в 3Д не смотрел, А мульт хорош!!!
 

хорошее 3d и прекрасный мультик
 

мульт отличный и3Днорм
 

Спасибо!
 

Всё классненько,Спасибо!!!
 

3D отлично и сюжет почти классический, но в начале все портят титры. Очень раздражали пока не догадался сменить проигрыватель и их выключить в настройках (Kantaris).
 

Страница 1 из 2

1, 2  След.