Торренты   
 
 


Panasonic Demo Discs 3D [2010-2011 г, 1080p-720p, Anamorph OverUnder]

Рейтинг 3D:
Пока никто не голосовал
Рейтинг фильма:
Пока никто не голосовал
 
Вы должны быть авторизированы,
чтобы ставить оценки


Panasonic Demo Discs 3D
Год выпуска: 2010-2011
Жанр: Демо
Общая продолжительность: 01:15:33
Перевод: отсутствует (практически не требуется)
Описание: Лучшие ролики с трёх демо-дисков Panasonic. Объединены в 4 файла с разными параметрами. В файлах вшиты главы: 1 ролик - 1 глава. На ТВ-ЮСБ, к сожалению, эти главы не работают! Наименования роликов и продолжительность каждого смотрите в самом низу соответствующего МедиаИнфо.
Формат 3d: Anamorph OverUnder
1. Panasonic-1080p24-2ch-2clips:
Продолжительность: 00:04:54
Качество: BDRip
Контейнер: MKV
Видео: AVC / 1920х1080p / 23,976 fps / 4701 kbps
Аудио: AC3 / 2 ch / 384 Kbps / 48 KHz

MediaInfo

General
Format : Matroska
File size : 183 MiB
Duration : 4mn 55s
Overall bit rate : 5 188 Kbps
Encoded date : UTC 2011-04-04 19:19:19
Writing application : mkvmerge v4.6.0 ('Still Crazy After All These Years') сборка от Mar 10 2011 02:50:32
Writing library : libebml v1.2.0 + libmatroska v1.1.0
Video
ID : 1
Format : AVC
Format/Info : Advanced Video Codec
Format profile : High@L4.1
Format settings, CABAC : Yes
Format settings, ReFrames : 4 frames
Format settings, GOP : M=3, N=5
Codec ID : V_MPEG4/ISO/AVC
Duration : 4mn 55s
Bit rate : 4 701 Kbps
Width : 1 920 pixels
Height : 1 080 pixels
Display aspect ratio : 0.889
Original display aspect ratio : 16:9
Frame rate : 23.976 fps
Color space : YUV
Chroma subsampling : 4:2:0
Bit depth : 8 bits
Scan type : Progressive
Bits/(Pixel*Frame) : 0.095
Stream size : 166 MiB (91%)
Writing library : x264 core 112 r1834 a51816a
Encoding settings : cabac=1 / ref=4 / deblock=1:-1:-1 / analyse=0x3:0x113 / me=umh / subme=9 / psy=1 / psy_rd=1.00:0.15 / mixed_ref=1 / me_range=16 / chroma_me=1 / trellis=2 / 8x8dct=1 / cqm=0 / deadzone=21,11 / fast_pskip=1 / chroma_qp_offset=-3 / threads=3 / sliced_threads=0 / nr=0 / decimate=1 / interlaced=0 / constrained_intra=0 / bframes=4 / b_pyramid=0 / b_adapt=2 / b_bias=0 / direct=3 / weightb=1 / open_gop=0 / weightp=2 / keyint=250 / keyint_min=23 / scenecut=40 / intra_refresh=0 / rc_lookahead=40 / rc=crf / mbtree=1 / crf=18.0 / qcomp=0.60 / qpmin=10 / qpmax=51 / qpstep=4 / vbv_maxrate=50000 / vbv_bufsize=50000 / crf_max=0.0 / ip_ratio=1.40 / aq=1:1.00 / nal_hrd=none
Audio
ID : 2
Format : AC-3
Format/Info : Audio Coding 3
Mode extension : CM (complete main)
Codec ID : A_AC3
Duration : 4mn 55s
Bit rate mode : Constant
Bit rate : 384 Kbps
Channel(s) : 2 channels
Channel positions : Front: L R
Sampling rate : 48.0 KHz
Bit depth : 16 bits
Compression mode : Lossy
Stream size : 13.5 MiB (7%)
Menu
00:00:00.000 : :Design For Passion
00:02:54.000 : :3D Image Viewer
2. Panasonic-1080p24-6ch-11clips:
Продолжительность: 00:23:22
Качество: BDRip
Контейнер: MKV
Видео: AVC / 1920х1080p / 23,976 fps / 8487 kbps
Аудио: AC3 / 6 ch / 640 Kbps / 48 KHz

MediaInfo

General
Format : Matroska
File size : 1.52 GiB
Duration : 23mn 23s
Overall bit rate : 9 312 Kbps
Encoded date : UTC 2011-04-05 10:44:17
Writing application : mkvmerge v4.6.0 ('Still Crazy After All These Years') сборка от Mar 10 2011 02:50:32
Writing library : libebml v1.2.0 + libmatroska v1.1.0
Video
ID : 1
Format : AVC
Format/Info : Advanced Video Codec
Format profile : High@L4.1
Format settings, CABAC : Yes
Format settings, ReFrames : 4 frames
Format settings, GOP : M=1, N=12
Codec ID : V_MPEG4/ISO/AVC
Duration : 23mn 23s
Bit rate : 8 487 Kbps
Width : 1 920 pixels
Height : 1 080 pixels
Display aspect ratio : 0.889
Original display aspect ratio : 16:9
Frame rate : 23.976 fps
Color space : YUV
Chroma subsampling : 4:2:0
Bit depth : 8 bits
Scan type : Progressive
Bits/(Pixel*Frame) : 0.171
Stream size : 1.39 GiB (91%)
Writing library : x264 core 112 r1834 a51816a
Encoding settings : cabac=1 / ref=4 / deblock=1:-1:-1 / analyse=0x3:0x113 / me=umh / subme=9 / psy=1 / psy_rd=1.00:0.15 / mixed_ref=1 / me_range=16 / chroma_me=1 / trellis=2 / 8x8dct=1 / cqm=0 / deadzone=21,11 / fast_pskip=1 / chroma_qp_offset=-3 / threads=3 / sliced_threads=0 / nr=0 / decimate=1 / interlaced=0 / constrained_intra=0 / bframes=4 / b_pyramid=0 / b_adapt=2 / b_bias=0 / direct=3 / weightb=1 / open_gop=0 / weightp=2 / keyint=250 / keyint_min=23 / scenecut=40 / intra_refresh=0 / rc_lookahead=40 / rc=crf / mbtree=1 / crf=18.0 / qcomp=0.60 / qpmin=10 / qpmax=51 / qpstep=4 / vbv_maxrate=50000 / vbv_bufsize=50000 / crf_max=0.0 / ip_ratio=1.40 / aq=1:1.00 / nal_hrd=none
Audio
ID : 2
Format : AC-3
Format/Info : Audio Coding 3
Mode extension : CM (complete main)
Codec ID : A_AC3
Duration : 23mn 23s
Bit rate mode : Constant
Bit rate : 640 Kbps
Channel(s) : 6 channels
Channel positions : Front: L C R, Side: L R, LFE
Sampling rate : 48.0 KHz
Bit depth : 16 bits
Compression mode : Lossy
Stream size : 107 MiB (7%)
Menu
00:00:00.000 : :Astro Boy
00:02:30.000 : :Забавные пушистые друзья
00:04:57.300 : :Рим - Вечный город
00:07:35.000 : :Full HD 3D Introduction-1
00:08:46.500 : :Full HD 3D Introduction-2
00:13:30.000 : :Panasonic 3D Sports
00:14:50.000 : :Hipira
00:17:04.000 : :Sync Future
00:18:41.000 : :Dance or We Are Lost
00:20:30.000 : :Flowing in the Dark
00:22:42.000 : :An Untitled Clip
3. Panasonic-720p60-2ch-4clips:
Продолжительность: 00:17:53
Качество: BDRip
Контейнер: MKV
Видео: AVC / 1280х720p / 59.940 fps / 12,0 Mbps
Аудио: AC3 / 2 ch / 384 Kbps / 48 KHz

MediaInfo

General
Format : Matroska
File size : 1.58 GiB
Duration : 17mn 53s
Overall bit rate : 12.6 Mbps
Encoded date : UTC 2011-04-04 19:22:52
Writing application : mkvmerge v4.6.0 ('Still Crazy After All These Years') сборка от Mar 10 2011 02:50:32
Writing library : libebml v1.2.0 + libmatroska v1.1.0
Video
ID : 1
Format : AVC
Format/Info : Advanced Video Codec
Format profile : High@L4.1
Format settings, CABAC : Yes
Format settings, ReFrames : 4 frames
Codec ID : V_MPEG4/ISO/AVC
Duration : 17mn 53s
Bit rate : 12.0 Mbps
Width : 1 280 pixels
Height : 720 pixels
Display aspect ratio : 0.889
Original display aspect ratio : 16:9
Frame rate : 59.940 fps
Color space : YUV
Chroma subsampling : 4:2:0
Bit depth : 8 bits
Scan type : Progressive
Bits/(Pixel*Frame) : 0.217
Stream size : 1.50 GiB (95%)
Writing library : x264 core 112 r1834 a51816a
Encoding settings : cabac=1 / ref=4 / deblock=1:-1:-1 / analyse=0x3:0x113 / me=umh / subme=9 / psy=1 / psy_rd=1.00:0.15 / mixed_ref=1 / me_range=16 / chroma_me=1 / trellis=2 / 8x8dct=1 / cqm=0 / deadzone=21,11 / fast_pskip=1 / chroma_qp_offset=-3 / threads=3 / sliced_threads=0 / nr=0 / decimate=1 / interlaced=0 / constrained_intra=0 / bframes=4 / b_pyramid=0 / b_adapt=2 / b_bias=0 / direct=3 / weightb=1 / open_gop=0 / weightp=2 / keyint=250 / keyint_min=25 / scenecut=40 / intra_refresh=0 / rc_lookahead=40 / rc=crf / mbtree=1 / crf=18.0 / qcomp=0.60 / qpmin=10 / qpmax=51 / qpstep=4 / vbv_maxrate=50000 / vbv_bufsize=50000 / crf_max=0.0 / ip_ratio=1.40 / aq=1:1.00 / nal_hrd=none
Audio
ID : 2
Format : AC-3
Format/Info : Audio Coding 3
Mode extension : CM (complete main)
Codec ID : A_AC3
Duration : 17mn 53s
Bit rate mode : Constant
Bit rate : 384 Kbps
Channel(s) : 2 channels
Channel positions : Front: L R
Sampling rate : 48.0 KHz
Bit depth : 16 bits
Compression mode : Lossy
Stream size : 49.2 MiB (3%)
Menu
00:00:00.000 : :Ruturu Beautiful Life
00:02:52.000 : :Tokyo Collection
00:06:22.000 : :Final Fantasy XIV
00:14:40.000 : :An Untitled Clip
4. Panasonic-720p60-6ch-13clips:
Продолжительность: 00:29:24
Качество: BDRip
Контейнер: MKV
Видео: AVC / 1280х720p / 59.940 fps / 18,9 Mbps
Аудио: AC3 / 6 ch / 640 Kbps / 48 KHz

MediaInfo

General
Format : Matroska
File size : 4.10 GiB
Duration : 29mn 25s
Overall bit rate : 20.0 Mbps
Encoded date : UTC 2011-04-05 11:17:36
Writing application : mkvmerge v4.6.0 ('Still Crazy After All These Years') сборка от Mar 10 2011 02:50:32
Writing library : libebml v1.2.0 + libmatroska v1.1.0
Video
ID : 1
Format : AVC
Format/Info : Advanced Video Codec
Format profile : High@L4.1
Format settings, CABAC : Yes
Format settings, ReFrames : 4 frames
Format settings, GOP : M=1, N=30
Codec ID : V_MPEG4/ISO/AVC
Duration : 29mn 25s
Bit rate : 18.9 Mbps
Width : 1 280 pixels
Height : 720 pixels
Display aspect ratio : 0.889
Original display aspect ratio : 16:9
Frame rate : 59.940 fps
Color space : YUV
Chroma subsampling : 4:2:0
Bit depth : 8 bits
Scan type : Progressive
Bits/(Pixel*Frame) : 0.343
Stream size : 3.89 GiB (95%)
Writing library : x264 core 112 r1834 a51816a
Encoding settings : cabac=1 / ref=4 / deblock=1:-1:-1 / analyse=0x3:0x113 / me=umh / subme=9 / psy=1 / psy_rd=1.00:0.15 / mixed_ref=1 / me_range=16 / chroma_me=1 / trellis=2 / 8x8dct=1 / cqm=0 / deadzone=21,11 / fast_pskip=1 / chroma_qp_offset=-3 / threads=3 / sliced_threads=0 / nr=0 / decimate=1 / interlaced=0 / constrained_intra=0 / bframes=4 / b_pyramid=0 / b_adapt=2 / b_bias=0 / direct=3 / weightb=1 / open_gop=0 / weightp=2 / keyint=250 / keyint_min=25 / scenecut=40 / intra_refresh=0 / rc_lookahead=40 / rc=crf / mbtree=1 / crf=18.0 / qcomp=0.60 / qpmin=10 / qpmax=51 / qpstep=4 / vbv_maxrate=50000 / vbv_bufsize=50000 / crf_max=0.0 / ip_ratio=1.40 / aq=1:1.00 / nal_hrd=none
Audio
ID : 2
Format : AC-3
Format/Info : Audio Coding 3
Mode extension : CM (complete main)
Codec ID : A_AC3
Duration : 29mn 25s
Bit rate mode : Constant
Bit rate : 640 Kbps
Channel(s) : 6 channels
Channel positions : Front: L C R, Side: L R, LFE
Sampling rate : 48.0 KHz
Bit depth : 16 bits
Compression mode : Lossy
Stream size : 135 MiB (3%)
Menu
00:00:00.000 : en:Природа Канады
00:02:10.000 : en:Чудеса мира кораллов
00:04:09.500 : en:Игра (автогонки)
00:04:35.500 : en:Мексиканская музыка Мариачи
00:06:00.500 : en:Мехико
00:08:11.000 : en:Мотокросс
00:09:43.000 : en:Драг рэйсинг
00:11:20.400 : en:Enjoying the Great Outdoors
00:14:50.000 : en:Пляжный воллейбол
00:17:25.000 : en:S.Brightman - Shall Be Done
00:20:07.000 : en:Итальянский футбол. Серия А
00:22:52.000 : en:Panasonic Open Golf
00:26:56.000 : en:Get Ready for London

Скриншоты

Благодарности релизеру (1)

Торрент:

Статус:

Размер:

Зарегистрирован   [ 2011-04-05 16:48 ]

проверено

7.38 GB