Торренты   
 
 

 

Предельные перегрузки 3D (мечта Зака о полетах) / Ultimate G's 3D (Zac's Flying Dream) [2000 г, 1080p, Anamorph OverUnder]

Рейтинг 3D:
13 голосов
7.7
Рейтинг фильма:
14 голосов
7.9
 
Вы должны быть авторизированы,
чтобы ставить оценки


Предельные перегрузки 3D (мечта Зака о полетах) / Ultimate G's 3D (Zac's Flying Dream)
Год выпуска: 2000
Страна: США
Жанр: Художественно-документальный
Продолжительность: 00:37:12
Перевод: Любительский (одноголосый) (перевод Антона Карповского)
Режиссер: Кейт Мелтон / Keith Melton
В ролях: Майкл Сера (Michael Cera), Джоэль МакНикол (Joel McNichol), Эмма Кэмпбелл (Emma Campbell), Эмма Тейлор-Айшервуд (Emma Taylor-Isherwood), Фрэйн МакКарти (Frayne McCarthy).
Описание: Почувствуй острые ощущения от полета мирового класса в соревнованиях высшего пилотажа через Большой каньон! Фильм содержит самые динамические воздушные трюки когда-либо запечатленные в большом формате, который создали из восхитительной мечты молодого мальчика о полетах. "Ultimate G's (Zac's Flying Dream)" это история о мечте, которая становится явью несмотря ни на что.
Воздушное приключение проходит по захватывающему пейзажу Большого каньона, маленькой реке Колорадо и озеру Пауэлл. Талантливое пилотирование даст зрителям острые ощущения, которые запомнятся на всю жизнь!
Доп.информация: Любители записывать на болванки могут в MKVmerge отключить англ.дорожку, тогда войдёт на стандартную ДВД-болванку.
Релиз:
Формат 3d: Anamorph OverUnder
Качество: BDRip
Контейнер: MKV
Видео: AVC / 1920х1080p / 23,976 fps / 15.8 Mbps
Аудио [rus]: AC3 / 2 ch / 192 Kbps / 48 KHz
Аудио [eng]: DTS / 6 ch / 1510 kbps / 48 KHz

MediaInfo

General
Complete name : F:\Downloads\Ultimate G's.am.mkv
Format : Matroska
File size : 4.63 GiB
Duration : 37mn 13s
Overall bit rate : 17.8 Mbps
Encoded date : UTC 2011-04-07 11:35:12
Writing application : mkvmerge v4.6.0 ('Still Crazy After All These Years') сборка от Mar 10 2011 02:50:32
Writing library : libebml v1.2.0 + libmatroska v1.1.0
Video
ID : 1
Format : AVC
Format/Info : Advanced Video Codec
Format profile : High@L4.1
Format settings, CABAC : Yes
Format settings, ReFrames : 4 frames
Codec ID : V_MPEG4/ISO/AVC
Duration : 37mn 13s
Bit rate : 15.8 Mbps
Width : 1 920 pixels
Height : 1 080 pixels
Display aspect ratio : 0.889
Original display aspect ratio : 16:9
Frame rate : 23.976 fps
Color space : YUV
Chroma subsampling : 4:2:0
Bit depth : 8 bits
Scan type : Progressive
Bits/(Pixel*Frame) : 0.317
Stream size : 4.10 GiB (88%)
Writing library : x264 core 112 r1834 a51816a
Encoding settings : cabac=1 / ref=4 / deblock=1:-1:-1 / analyse=0x3:0x113 / me=umh / subme=9 / psy=1 / psy_rd=1.00:0.15 / mixed_ref=1 / me_range=16 / chroma_me=1 / trellis=2 / 8x8dct=1 / cqm=0 / deadzone=21,11 / fast_pskip=1 / chroma_qp_offset=-3 / threads=3 / sliced_threads=0 / nr=0 / decimate=1 / interlaced=0 / constrained_intra=0 / bframes=4 / b_pyramid=0 / b_adapt=2 / b_bias=0 / direct=3 / weightb=1 / open_gop=0 / weightp=2 / keyint=250 / keyint_min=23 / scenecut=40 / intra_refresh=0 / rc_lookahead=40 / rc=crf / mbtree=1 / crf=18.0 / qcomp=0.60 / qpmin=10 / qpmax=51 / qpstep=4 / vbv_maxrate=50000 / vbv_bufsize=50000 / crf_max=0.0 / ip_ratio=1.40 / aq=1:1.00 / nal_hrd=none
Audio #1
ID : 2
Format : AC-3
Format/Info : Audio Coding 3
Mode extension : CM (complete main)
Codec ID : A_AC3
Duration : 37mn 13s
Bit rate mode : Constant
Bit rate : 192 Kbps
Channel(s) : 2 channels
Channel positions : Front: L R
Sampling rate : 48.0 KHz
Bit depth : 16 bits
Compression mode : Lossy
Stream size : 51.1 MiB (1%)
Language : Russian
Audio #2
ID : 3
Format : DTS
Format/Info : Digital Theater Systems
Codec ID : A_DTS
Duration : 37mn 13s
Bit rate mode : Constant
Bit rate : 1 510 Kbps
Channel(s) : 6 channels
Channel positions : Front: L C R, Side: L R, LFE
Sampling rate : 48.0 KHz
Bit depth : 24 bits
Compression mode : Lossy
Stream size : 402 MiB (8%)
Language : English
Menu
00:00:00.000 : en:01
00:02:45.165 : en:02
00:05:14.481 : en:03
00:09:15.555 : en:04
00:14:58.397 : en:05
00:17:42.728 : en:06
00:20:03.327 : en:07
00:24:45.275 : en:08
00:27:18.762 : en:09
00:33:16.620 : en:10
00:35:44.267 : en:11

Скриншоты

Сравнение скриншотов

BD Этот рип Fab-рип


Лог кодирования

Благодарности релизеру (9)

Торрент:

Статус:

Размер:

Зарегистрирован   [ 2011-04-07 17:33 ]

проверено

4.63 GB