Торренты   
 
 

 

Хроники Нарнии: Покоритель Зари в 3Д / The Chronicles of Narnia: The Voyage of the Dawn Treader 3D (Майкл Эптид) [2010 г., BDRip ,720p , OverUnder]

Рейтинг 3D:
5 голосов
8.2
Рейтинг фильма:
5 голосов
7.5
 
Вы должны быть авторизированы,
чтобы ставить оценки


Хроники Нарнии: Покоритель Зари в 3Д / The Chronicles of Narnia: The Voyage of the Dawn Treader 3D
Год выпуска: 2010
Страна: США
Жанр: фэнтези, приключения, семейный
Продолжительность: 01:52:40
Перевод: Профессиональный (полное дублирование)
Режиссер: Майкл Эптид
В ролях: Бен Барнс (Caspian), Скандар Кейнс (Edmund Pevensie), Джорджи Хенли (Lucy Pevensie), Уилл Поултер (Eustace Clarence Scrubb), Гари Свит (Drinian), Тильда Суинтон (The White Witch), Анна Попплуэлл (Susan Pevensie), Уильям Моусли (Peter Pevensie), Лиам Нисон (Aslan, озвучка), Саймон Пегг (Reepicheep, озвучка), Терри Норрис (Lord Bern), Брюс Спенс (Lord Rhoop)
Описание: Эдмунд, Люси, их кузен Юстас и король Каспиан отплывают на корабле «Покоритель Зари» на поиски друзей отца Каспиана - семи лордов: Ревелиана, Берна, Аргоза, Мавроморна, Октезиана, Рестимара и Рупа, изгнанных во время недолгого правления тирана Мираза.
Качество: BDrip
Контейнер: MKV
Формат 3d: OverUnder/ Вертикальная стереопара
Порядок ракурсов: левый ракурс первый
Видео кодек: x264
Аудио кодек: AC3
Видео: MPEG4 Video (H264) 1280x1440p 23.976fps 5899 Mbps
Аудио:Russian : AC3 48000Hz 5.1ch 640kbps
Аудио2:English : AC3 48000Hz 5.1ch 640kbps

MediaInfo

Формат : Matroska
Размер файла : 5,77 Гбайт
Продолжительность : 1 ч. 52 м.
Общий поток : 7325 Кбит/сек
Дата кодирования : UTC 2011-03-23 18:58:01
Программа кодирования : mkvmerge v4.6.0 ('Still Crazy After All These Years') сборка от Mar 10 2011 02:50:32
Библиотека кодирования : libebml v1.2.0 + libmatroska v1.1.0
Видео
Идентификатор : 1
Формат : AVC
Формат/Информация : Advanced Video Codec
Профиль формата : High@L5.0
Параметр CABAC формата : Да
Параметр ReFrames формата : 12 кадры
Режим смешивания : Header stripping
Идентификатор кодека : V_MPEG4/ISO/AVC
Продолжительность : 1 ч. 52 м.
Битрейт : 5899 Кбит/сек
Ширина : 1280 пикс.
Высота : 1440 пикс.
Соотношение сторон : 0,889
Частота кадров : 23,976 кадр/сек
Цветовое пространство : YUV
Подвыборка цветности : 4:2:0
Битовая глубина : 8 бит
Тип развёртки : Прогрессивная
Бит/(Пиксели*Кадры) : 0.133
Размер потока : 4,64 Гбайт (81%)
Заголовок : Video
Библиотека кодирования : x264 core 114 r1913 5fd3dce
Настройки программы : cabac=1 / ref=12 / deblock=1:-1:-1 / analyse=0x3:0x113 / me=umh / subme=8 / psy=1 / psy_rd=1.00:0.15 / mixed_ref=1 / me_range=16 / chroma_me=1 / trellis=1 / 8x8dct=1 / cqm=0 / deadzone=21,11 / fast_pskip=1 / chroma_qp_offset=-3 / threads=12 / sliced_threads=0 / nr=0 / decimate=1 / interlaced=0 / constrained_intra=0 / bframes=9 / b_pyramid=2 / b_adapt=2 / b_bias=0 / direct=3 / weightb=1 / open_gop=0 / weightp=2 / keyint=250 / keyint_min=23 / scenecut=40 / intra_refresh=0 / rc_lookahead=50 / rc=crf / mbtree=1 / crf=21.0 / qcomp=0.60 / qpmin=0 / qpmax=69 / qpstep=4 / ip_ratio=1.40 / aq=1:1.00
Язык : Russian
Аудио #1
Идентификатор : 2
Формат : AC-3
Формат/Информация : Audio Coding 3
Расширение режима : CM (complete main)
Режим смешивания : Header stripping
Идентификатор кодека : A_AC3
Продолжительность : 1 ч. 52 м.
Вид битрейта : Постоянный
Битрейт : 640 Кбит/сек
Канал(ы) : 6 канала(ов)
Расположение каналов : Front: L C R, Side: L R, LFE
Частота : 48,0 КГц
Битовая глубина : 16 бит
Метод сжатия : С потерями
Размер потока : 516 Мбайт (9%)
Заголовок : Russian
Язык : Russian
Аудио #2
Идентификатор : 3
Формат : AC-3
Формат/Информация : Audio Coding 3
Расширение режима : CM (complete main)
Режим смешивания : Header stripping
Идентификатор кодека : A_AC3
Продолжительность : 1 ч. 52 м.
Вид битрейта : Постоянный
Битрейт : 640 Кбит/сек
Канал(ы) : 6 канала(ов)
Расположение каналов : Front: L C R, Side: L R, LFE
Частота : 48,0 КГц
Битовая глубина : 16 бит
Метод сжатия : С потерями
Размер потока : 516 Мбайт (9%)
Заголовок : English
Язык : English

Скриншоты



Благодарности релизеру (12)

Торрент:

Статус:

Размер:

Зарегистрирован   [ 2011-04-08 23:31 ]

проверено

5.77 GB