Торренты   
 
 


Азербайджан в 3D [2010 г, 720p, Anamorph SideBySide]

Рейтинг 3D:
2 голосов
5.4
Рейтинг фильма:
2 голосов
5.4
 
Вы должны быть авторизированы,
чтобы ставить оценки


Азербайджан в 3D
Год выпуска: 2010
Жанр: Документальный, Видовой
Общая продолжительность: 00:27:01
Описание: Семь "cтарых", известных роликов про Азербайджан. Ресайзнул под ТВ, обрезал надоедливую рекламу, сшил в один файл, разбил на главы: 1 ролик - 1 глава. Названия роликов и продолжительность в самом низу МедиаИнфо. На ТВ-ЮСБ показывает, но эти главы не работают!
Доп.информация: Как выяснилось, автором этих роликов является пользователь "нашего" трекера - yar! Большое Вам спасибо за качественные ролики, yar!
Формат 3d: Anamorph SideBySide
Порядок ракурсов: Параллельная пара
Качество: HDRip
Контейнер: MKV
Видео: AVC / 1920х720p / 25 fps / 7 231 Kbps
Аудио: mp3 / 2 ch / 160 Kbps / 48 KHz

MediaInfo

General
Complete name : F:\Downloads\Азербайджан.mkv
Format : Matroska
File size : 1.42 GiB
Duration : 27mn 1s
Overall bit rate : 7 541 Kbps
Encoded date : UTC 2011-04-08 14:11:23
Writing application : mkvmerge v4.6.0 ('Still Crazy After All These Years') сборка от Mar 10 2011 02:50:32
Writing library : libebml v1.2.0 + libmatroska v1.1.0
Video
ID : 1
Format : AVC
Format/Info : Advanced Video Codec
Format profile : High@L4.1
Format settings, CABAC : Yes
Format settings, ReFrames : 4 frames
Codec ID : V_MPEG4/ISO/AVC
Duration : 27mn 1s
Bit rate : 7 231 Kbps
Width : 1 920 pixels
Height : 720 pixels
Display aspect ratio : 3.556
Original display aspect ratio : 2.667
Frame rate : 25.000 fps
Color space : YUV
Chroma subsampling : 4:2:0
Bit depth : 8 bits
Scan type : Progressive
Bits/(Pixel*Frame) : 0.209
Stream size : 1.37 GiB (96%)
Writing library : x264 core 114 r1913 5fd3dce
Encoding settings : cabac=1 / ref=4 / deblock=1:-1:-1 / analyse=0x3:0x113 / me=umh / subme=9 / psy=1 / psy_rd=1.00:0.15 / mixed_ref=1 / me_range=16 / chroma_me=1 / trellis=2 / 8x8dct=1 / cqm=0 / deadzone=21,11 / fast_pskip=1 / chroma_qp_offset=-3 / threads=3 / sliced_threads=0 / nr=0 / decimate=1 / interlaced=0 / constrained_intra=0 / bframes=4 / b_pyramid=0 / b_adapt=2 / b_bias=0 / direct=3 / weightb=1 / open_gop=0 / weightp=2 / keyint=250 / keyint_min=25 / scenecut=40 / intra_refresh=0 / rc_lookahead=40 / rc=crf / mbtree=1 / crf=18.0 / qcomp=0.60 / qpmin=10 / qpmax=51 / qpstep=4 / vbv_maxrate=50000 / vbv_bufsize=50000 / crf_max=0.0 / nal_hrd=none / ip_ratio=1.40 / aq=1:1.00
Audio
ID : 2
Format : MPEG Audio
Format version : Version 1
Format profile : Layer 3
Mode : Joint stereo
Codec ID : A_MPEG/L3
Codec ID/Hint : MP3
Duration : 27mn 1s
Bit rate mode : Constant
Bit rate : 160 Kbps
Channel(s) : 2 channels
Sampling rate : 48.0 KHz
Compression mode : Lossy
Stream size : 30.9 MiB (2%)
Writing library : LAME3.98.2
Menu
00:00:00.000 : en: Баку
00:03:45.000 : en: Ночной Баку
00:07:12.000 : en: Атешгях
00:10:11.000 : en: Габала
00:13:27.100 : en: Гобустан
00:16:13.600 : en: Нахичевань
00:23:19.100 : en: Шеки

Скриншоты

Благодарности релизеру (2)

Торрент:

Статус:

Размер:

Зарегистрирован   [ 2011-04-09 20:01 ]

проверено

1.42 GB