Торренты   
 
 

 

Путешествия Гулливера 3D / Gulliver's Travels 3D (Роб Леттерман) [2010 г., Anamorph OverUnder]

Рейтинг 3D:
15 голосов
7.3
Рейтинг фильма:
20 голосов
7.0
 
Вы должны быть авторизированы,
чтобы ставить оценки


Путешествия Гулливера 3D / Gulliver's Travels 3D Год выпуска: 2010
Страна: США
Жанр: фэнтези, комедия, приключения
Продолжительность: 1:24:42
Перевод: Профессиональный (полное дублирование)
Режиссер: Роб Леттерман
В ролях: Джек Блэк, Джейсон Сигел, Эмили Блант, Аманда Пит, Билли Коннолли, Криc О’Дауд, ТиДжей Миллер, Джеймс Корден, Кэтрин Тейт, Эмманюэль Куатра
Описание: Лемюэль Гулливер, ищущий славы и сенсационного материала, отправляется в Бермудский треугольник, одно из самых таинственных мест планеты. Оттуда шторм уносит его в неизвестном направлении к острову, населенному крошечным народом, благодаря которому Гулливер вырвется из своего тесного мирка в большой мир.-Релиз группы:

Проверено на встроенном плейере ТВ LG 42LW4500
-Формат 3d: Anamorph OverUnder
Видео: MPEG4 Video (H264) 1920x1080 23.976 кадр/сек 10,6 Мбит/сек
Аудио Rus: AC3, 6 каналов, 640 Кбит/сек, 48,0 КГц
Аудио Eng: AC3, 6 каналов, 640 Кбит/сек, 48,0 КГц
Субтитры: Russian forced, Russian. English, UTF-8 (отдельно на Narod.Ru)

Скриншоты

MI

Код:
Общее
Уникальный идентификатор                 : 253175857111581895520884287816155598129 (0xBE77E57D236C1EC68BE7D853FAA90D31)
Полное имя                               : D:\3D-RuGroup\Фильмы\Gulliver'sTravels.3D.2010.BD3DRip.Half.OU.x264.AC3.Rus.Eng.mkv
Формат                                   : Matroska
Версия формата                           : Version 2
Размер файла                             : 7,18 Гбайт
Продолжительность                        : 1 ч. 24 м.
Общий поток                              : 12,1 Мбит/сек
Название фильма                          : Gulliver's Travels by elephant aka itsamna
Дата кодирования                         : UTC 2012-04-16 14:22:25
Программа кодирования                    : mkvmerge v3.4.0 ('Rapunzel') сборка от May 15 2010 09:38:20
Библиотека кодирования                   : libebml v0.8.0 + libmatroska v0.9.0
Видео
Идентификатор                            : 1
Формат                                   : AVC
Формат/Информация                        : Advanced Video Codec
Профиль формата                          : High@L4.0
Параметр CABAC формата                   : Да
Параметр ReFrames формата                : 4 кадра
Идентификатор кодека                     : V_MPEG4/ISO/AVC
Продолжительность                        : 1 ч. 24 м.
Битрейт                                  : 10,6 Мбит/сек
Ширина                                   : 1920 пикселей
Высота                                   : 1080 пикселей
Соотношение сторон                       : 16:9
Частота кадров                           : 23,976 кадра/сек
Цветовое пространство                    : YUV
Субдискретизация насыщенности            : 4:2:0
Битовая глубина                          : 8 бит
Тип развёртки                            : Прогрессивная
Бит/(Пиксели*Кадры)                      : 0.214
Размер потока                            : 6,28 Гбайт (87%)
Заголовок                                : Gulliver's Travels
Библиотека кодирования                   : x264 core 112 r1834 a51816a
Настройки программы                      : cabac=1 / ref=4 / deblock=1:-3:-3 / analyse=0x3:0x133 / me=umh / subme=9 / psy=1 / psy_rd=1.00:0.15 / mixed_ref=1 / me_range=16 / chroma_me=1 / trellis=2 / 8x8dct=1 / cqm=0 / deadzone=21,11 / fast_pskip=0 / chroma_qp_offset=-3 / threads=3 / sliced_threads=0 / nr=0 / decimate=1 / interlaced=0 / constrained_intra=0 / bframes=6 / b_pyramid=2 / b_adapt=2 / b_bias=0 / direct=3 / weightb=1 / open_gop=0 / weightp=2 / keyint=250 / keyint_min=23 / scenecut=40 / intra_refresh=0 / rc_lookahead=60 / rc=crf / mbtree=1 / crf=18.0 / qcomp=0.70 / qpmin=0 / qpmax=51 / qpstep=4 / ip_ratio=1.40 / aq=1:0.70
Default                                  : Да
Forced                                   : Нет
Аудио #1
Идентификатор                            : 2
Формат                                   : AC-3
Формат/Информация                        : Audio Coding 3
Расширение режима                        : CM (complete main)
Идентификатор кодека                     : A_AC3
Продолжительность                        : 1 ч. 24 м.
Вид битрейта                             : Постоянный
Битрейт                                  : 640 Кбит/сек
Каналы                                   : 6 каналов
Расположение каналов                     : Front: L C R, Side: L R, LFE
Частота                                  : 48,0 КГц
Битовая глубина                          : 16 бит
Метод сжатия                             : С потерями
Размер потока                            : 388 Мбайт (5%)
Заголовок                                : Dub
Язык                                     : Russian
Default                                  : Да
Forced                                   : Нет
Аудио #2
Идентификатор                            : 3
Формат                                   : AC-3
Формат/Информация                        : Audio Coding 3
Расширение режима                        : CM (complete main)
Идентификатор кодека                     : A_AC3
Продолжительность                        : 1 ч. 24 м.
Вид битрейта                             : Постоянный
Битрейт                                  : 640 Кбит/сек
Каналы                                   : 6 каналов
Расположение каналов                     : Front: L C R, Side: L R, LFE
Частота                                  : 48,0 КГц
Битовая глубина                          : 16 бит
Метод сжатия                             : С потерями
Размер потока                            : 388 Мбайт (5%)
Заголовок                                : Original
Язык                                     : English
Default                                  : Нет
Forced                                   : Нет
Меню
00:00:00.000                             : :1
00:03:06.352                             : :2
00:06:35.311                             : :3
00:10:05.688                             : :4
00:12:32.918                             : :5
00:14:30.703                             : :6
00:16:29.113                             : :7
00:20:13.420                             : :8
00:23:03.548                             : :9
00:26:02.269                             : :10
00:29:24.679                             : :11
00:34:32.528                             : :12
00:38:50.119                             : :13
00:42:48.440                             : :14
00:48:49.801                             : :15
00:52:30.272                             : :16
00:55:11.683                             : :17
01:00:36.799                             : :18
01:05:50.905                             : :19
01:08:17.176                             : :20
01:10:59.838                             : :21
01:14:45.147                             : :22
01:16:27.416                             : :23
01:20:10.764                             : :24
17.04.2012 - Релиз обновлен. Порядок ракурсов в рипе приведен к стандарту.
Желающие, скачайте заново торрент-файл.
Благодарности релизеру (18)

Торрент:

Статус:

Размер:

Зарегистрирован   [ 2012-04-17 22:58 ]

проверено

7.18 GB

 
 Мнение о фильме (4)





фильм средний, картинка отличная
 

Фильм смотрел еще в 2D, так что каких то откровений не жду-сам по себе слабоват конечно)
Но есть поле для разворота объема- возможно и получится)
Обязательно отпишусь,как посмотрю)
 

Фильм огонь)
 

Спасибо, ваш труд заслуживает благодарности!
 
Михаил Долгалев Профиль 02-Фев-2014 16:06