Торренты   
 
 

 

IMAX. Динозавры: Гиганты Патагонии / Dinosaurs: Giants of Patagonia (Марк Фафар) [2007 г, 720p, Anaglyph, red'cyan]

Рейтинг 3D:
35 голосов
8.7
Рейтинг фильма:
30 голосов
8.3
 
Вы должны быть авторизированы,
чтобы ставить оценки


IMAX. Динозавры: Гиганты Патагонии / Dinosaurs: Giants of Patagonia
Год выпуска: 2007
Страна: Канада
Жанр: Документальный
Продолжительность: 00:40:32
Перевод: Профессиональный (одноголосый)
Режиссер: Марк Фафар / Marc Fafard
Описание: Если бы не серия катаклизмов, начатая падением метеорита, наша планета до сих пор могла бы быть населена динозаврами.
Динозавры настолько поразительны, что немало людей мечтает, чтобы они и сейчас жили среди нас. К счастью, с появлением "Динозавров 3D" у вас появляется возможность оказаться среди этих удивительных созданий, не ставя под угрозу свою жизнь и существование всего человечества.
Вслед за профессором Рудольфо Гориа, всемирно известным Аргентинским палеонтологом, вы посетите места его важнейших открытий в Патагонии и вернетесь назад во времени, чтобы увидеть рождение этих невероятных созданий. Патагония подарила нам самое большое живое существо, когда-либо бродившее по Земле — огромного травоядного Аргентинозавра, а также и его врага Гигантозавра, двуногого хищника, который легко поспорит со знаменитым Т-Рексом.
Релиз:
Доп. информация:Формат: MKV
Видео:
AVC; 1280х720p; 23,976 fps; 6557Kbps
Аудио:
Russian; AC-3; 48,0 Khz; 192 Kbps; 2ch(Front: L R)
English; DTS; 48,0 Khz; 1510 Kbps; 6ch(Front: L C R, Side: L R, LFE)

Формат 3d: Anaglyph
Цвета очков:

MediaInfo

Общее
UniqueID/String : 183510495098061229981632839931028652333 (0x8A0ED5F47D63ABAF9ABEE33EFCF9412D)
Полное имя : Dinosaurs Patagonia_AnRC.mkv
Формат : Matroska
Размер файла : 2,39 Гбайт
Продолжительность : 40 м.
Общий поток : 8426 Кбит/сек
Дата кодирования : UTC 2011-04-16 11:41:09
Программа кодирования : mkvmerge v4.6.0 ('Still Crazy After All These Years') сборка от Mar 13 2011 18:33:29
Библиотека кодирования : libebml v1.2.0 + libmatroska v1.1.0
Видео
Идентификатор : 1
Формат : AVC
Формат/Информация : Advanced Video Codec
Профиль формата : Main@L4.0
Параметр CABAC формата : Да
Параметр ReFrames формата : 4 кадры
Режим смешивания : Header stripping
Идентификатор кодека : V_MPEG4/ISO/AVC
Продолжительность : 40 м.
Битрейт : 6557 Кбит/сек
Номинальный битрейт : 6900 Кбит/сек
Ширина : 1280 пикс.
Высота : 720 пикс.
Соотношение сторон : 16:9
Частота кадров : 23,976 кадр/сек
Цветовое пространство : YUV
Подвыборка цветности : 4:2:0
Битовая глубина : 8 бит
Тип развёртки : Прогрессивная
Бит/(Пиксели*Кадры) : 0.297
Размер потока : 1,86 Гбайт (78%)
Библиотека кодирования : x264 core 114 r1913 5fd3dce
Настройки программы : cabac=1 / ref=4 / deblock=1:-1:-1 / analyse=0x1:0x131 / me=umh / subme=7 / psy=1 / psy_rd=1.00:0.10 / mixed_ref=1 / me_range=16 / chroma_me=1 / trellis=2 / 8x8dct=0 / cqm=0 / deadzone=21,11 / fast_pskip=0 / chroma_qp_offset=-3 / threads=1 / sliced_threads=0 / nr=0 / decimate=1 / interlaced=0 / constrained_intra=0 / bframes=3 / b_pyramid=2 / b_adapt=2 / b_bias=0 / direct=1 / weightb=1 / open_gop=0 / weightp=2 / keyint=250 / keyint_min=23 / scenecut=40 / intra_refresh=0 / rc_lookahead=50 / rc=abr / mbtree=1 / bitrate=6900 / ratetol=1.0 / qcomp=0.60 / qpmin=0 / qpmax=69 / qpstep=4 / ip_ratio=1.40 / aq=1:1.00
Язык : English
Аудио #1
Идентификатор : 2
Формат : AC-3
Формат/Информация : Audio Coding 3
Расширение режима : CM (complete main)
Режим смешивания : Header stripping
Идентификатор кодека : A_AC3
Продолжительность : 40 м.
Вид битрейта : Постоянный
Битрейт : 192 Кбит/сек
Канал(ы) : 2 канала(ов)
Расположение каналов : Front: L R
Частота : 48,0 КГц
Битовая глубина : 16 бит
Метод сжатия : С потерями
Размер потока : 55,7 Мбайт (2%)
Заголовок : AC3; 2 ch; 192 Kbps; 48 KHz
Язык : Russian
Аудио #2
Идентификатор : 3
Формат : DTS
Формат/Информация : Digital Theater Systems
Режим смешивания : Header stripping
Идентификатор кодека : A_DTS
Продолжительность : 40 м.
Вид битрейта : Постоянный
Битрейт : 1510 Кбит/сек
Канал(ы) : 6 канала(ов)
Расположение каналов : Front: L C R, Side: L R, LFE
Частота : 48,0 КГц
Битовая глубина : 24 бит
Метод сжатия : С потерями
Размер потока : 438 Мбайт (18%)
Заголовок : DTS; 6 ch; 1510 Kbps; 48 KHz
Язык : English
Меню
00:00:00.000 : :CHAPTER01=00:00:00.000
00:02:16.803 : :CHAPTER02=00:02:16.803
00:03:12.692 : :CHAPTER03=00:03:12.692
00:06:32.058 : :CHAPTER04=00:06:32.058
00:07:22.942 : :CHAPTER05=00:07:22.942
00:10:43.142 : :CHAPTER06=00:10:43.142
00:14:20.860 : :CHAPTER07=00:14:20.860
00:21:51.101 : :CHAPTER08=00:21:51.101
00:25:37.077 : :CHAPTER09=00:25:37.077
00:28:45.515 : :CHAPTER10=00:28:45.515
00:31:23.924 : :CHAPTER11=00:31:23.924
00:33:12.032 : :CHAPTER12=00:33:12.032
00:35:10.650 : :CHAPTER13=00:35:10.650
00:37:07.767 : :CHAPTER14=00:37:07.767
00:39:07.887 : :CHAPTER15=00:39:07.887

Скриншоты








Мои раздачи в анаглифе
Остальные раздачи этого фильма (4)
Благодарности релизеру (4)

Торрент:

Статус:

Размер:

Зарегистрирован   [ 2011-12-17 01:56 ]

проверено

2.39 GB

 
 Мнение о фильме (7)





Спасибо !!! прикольный фильм !!!
 

вылеты какие нибудь есть??как качество 3D? Отпишитесь кто смотрел.Стоит скачивать или нет
 

Не так вникал в сюжет, как наслаждался красивыми пейзажами и хорошим 3Д !! =)
 

3d - very goooooodddd
 

Замечательный и познавательный фильм!3Д тоже хорошее, что очень порадовало.
 

фильм нормуль. 3д норма.
 

Станьте на раздачу,плииззз!