Торренты   
 
 


Битва Титанов в 3Д / Clash of the Titans 3D (Луи Летерье / Louis Leterrier) [2010 г., med_bad, Anamorph SideBySide]

Рейтинг 3D:
23 голосов
5.8
Рейтинг фильма:
19 голосов
7.4
 
Вы должны быть авторизированы,
чтобы ставить оценки


[bad]Битва Титанов в 3Д / Clash of the Titans 3D
Год выпуска: 2010
Страна: США, Великобритания
Жанр: боевик, фэнтези, драма, приключения
Продолжительность: 01:46:08
Перевод: Профессиональный (полное дублирование)
Режиссер: Луи Летерье / Louis Leterrier
В ролях: Сэм Уортингтон, Лиам Нисон, Рэйф Файнс, Джейсон Флеминг, Джемма Артертон, Алекса Давалос, Тине Штапельфелдт, Мадс Миккельсен, Люк Эванс, Изабелла Мико
Описание: Персей, сын бога, воспитанный человеком, не смог защитить свою семью от Аида, мстительного повелителя подземного мира. Теперь ему уже нечего терять, и он добровольно соглашается возглавить опасную миссию, чтобы одержать победу над Аидом до того, как тот отберет власть у Зевса и выпустит демонов подземного царства на Землю. Возглавляя отряд бесстрашных воинов, Персей отправляется в рискованное путешествие по лабиринту запретных миров. Чтобы победить в свирепой схватке с жуткими демонами и злобными чудовищами, противостоять злому року и стать хозяином своей судьбы, он должен осознать и принять свою божественную силу.
Доп. информация: Первоначально американская премьера «Битвы Титанов» была намечена на 26 марта 2010 года. Огромный успех «Аватара» (2009) побудил киностудию попробовать, как будет смотреться фильм в трёхмерном формате. После того как тестовые просмотры прошли с огромным успехом, в конце января 2010 года было принято решение о переводе фильма полностью в 3-D, а дата выхода в прокат в связи с этим была сдвинута на неделю на 3 апреля.
Формат 3d: Anamorph SideBySide
Порядок ракурсов: Перекрестная пара
Формат: MKV
Видео кодек: x264
Видео: MPEG4 Video (H264) 1920x1080p 25 fps 10.1 Mbps
Аудио кодек: AC3
Аудио 1: russian Dolby AC3 48000Hz 6ch 448 Kbps
Аудио 2: English : DTS 48000Hz 5.1ch 1510kbps

MediaInfo

Format : Matroska
File size : 9.09 GiB
Duration : 1h 46mn
Overall bit rate : 12.3 Mbps
Encoded date : UTC 2011-01-04 23:25:58
Writing application : mkvmerge v2.9.7 ('Tenderness') built on Jul 1 2009 18:43:35
Writing library : libebml v0.7.7 + libmatroska v0.8.1
Video
ID : 1
Format : AVC
Format/Info : Advanced Video Codec
Format profile : High@L4.1
Format settings, CABAC : Yes
Format settings, ReFrames : 4 frames
Muxing mode : Container profile=Unknown@4.1
Codec ID : V_MPEG4/ISO/AVC
Duration : 1h 46mn
Bit rate : 10.1 Mbps
Width : 1 920 pixels
Height : 1 080 pixels
Display aspect ratio : 16:9
Frame rate : 23.976 fps
Color space : YUV
Chroma subsampling : 4:2:0
Bit depth : 8 bits
Scan type : Progressive
Bits/(Pixel*Frame) : 0.202
Stream size : 7.45 GiB (82%)
Writing library : x264 core 98 r1649 c54c47d
Encoding settings : cabac=1 / ref=3 / deblock=1:0:0 / analyse=0x3:0x113 / me=umh / subme=9 / psy=1 / psy_rd=1.00:0.00 / mixed_ref=1 / me_range=16 / chroma_me=1 / trellis=2 / 8x8dct=1 / cqm=0 / deadzone=21,11 / fast_pskip=1 / chroma_qp_offset=-2 / threads=6 / sliced_threads=0 / nr=0 / decimate=1 / interlaced=0 / constrained_intra=0 / bframes=3 / b_pyramid=2 / b_adapt=2 / b_bias=0 / direct=1 / weightb=1 / weightp=2 / keyint=250 / keyint_min=25 / scenecut=40 / intra_refresh=0 / rc_lookahead=40 / rc=crf / mbtree=1 / crf=17.0 / qcomp=0.60 / qpmin=10 / qpmax=51 / qpstep=4 / ip_ratio=1.40 / aq=1:1.00
Language : English
Audio #1
ID : 2
Format : AC-3
Format/Info : Audio Coding 3
Mode extension : CM (complete main)
Codec ID : A_AC3
Duration : 1h 46mn
Bit rate mode : Constant
Bit rate : 448 Kbps
Channel(s) : 6 channels
Channel positions : Front: L C R, Side: L R, LFE
Sampling rate : 48.0 KHz
Bit depth : 16 bits
Stream size : 340 MiB (4%)
Title : Dublyazh AC3 5.1 448 kbps
Language : Russian
Audio #2
ID : 3
Format : DTS
Format/Info : Digital Theater Systems
Codec ID : A_DTS
Duration : 1h 46mn
Bit rate mode : Constant
Bit rate : 1 510 Kbps
Channel(s) : 6 channels
Channel positions : Front: L C R, Side: L R, LFE
Sampling rate : 48.0 KHz
Bit depth : 24 bits
Stream size : 1.12 GiB (12%)
Language : English

Скриншоты



Остальные раздачи этого фильма (6)
Благодарности релизеру (2)

Торрент:

Статус:

Размер:

Зарегистрирован   [ 2011-12-16 23:15 ]

проверено

9.09 GB

 
 Мнение о фильме (8)





Что-то по скринам действительно слабый стерео эффект. Кто скачал отпишитесь, как 3Д эффект в фильме?
 

Что-то по скринам действительно слабый стерео эффект. Кто скачал отпишитесь, как 3Д эффект в фильме?
Я одил в кинотеатр на этот фильм в формате 3D ,так там почти небыло 3D эффектов ,только когда АИД появлялся,тогда они были :_) так что такой фильм сняли по быстрому :)и такой же 3D получился :)
 

Да стереоэффект там не айс!Только местами!А про конвертацию в дополнительной информации сказано! :)
 

Да вообще эффекта ноль. Знал бы не качал
 

А про конвертацию в дополнительной информации сказано! :)
Да, точно, не заметил:) лады. Медиаданные всё равно не от него;)
Да вообще эффекта ноль. Знал бы не качал
Либо значок надо сделать с большим пальцем вниз:) "2Д-3Д", либо вообще такие фильмы бойкотировать, не ходить на них в кино, не покупать диски, и не держать на трекере. Не, серьёзно, это обман, псевдостерео, продукт не соответствующего качества, надо как-то пинка производителям дать в виде бойкота и опускания (антирекламы), стимулировать съемку сразу в 3Д. По уму на 3Д трекере с репутацией "только настоящее 3Д без псевдо и фейков" от конвертации лучше отказаться, пусть будет меньше да лучше, зато будет меньше разочарований.
Попробуй паралакс увеличить!
А смысл? Плоская картинка уйдет вглубь экрана, глаза станет труднее косить, аккомодация не совпадает с конвергенцией постоянно, если не долго то как гимнастика, а если постоянно так смотреть, накопившееся напряжение мышц может привести к плачевным последствиям, лучше в 2Д посмотреть и глаза не мучить.
 

На счет бойкота хорошо но уж больно оптимистично! :) Тех кто в 3д более менее разбирается процентов 10 а остальные 90 будут покупать фейки и смотреть их! В конце концов это не самопальный псевдо а заводской(правда от этого теплее не становится)!Если уж говорить о серьезной войне и антирекламе то вариант с пометкой конвертация наиболее эффективный будет на мой взгляд!На трекер ведь и новички приходят и люди не очень искушенные в 3д и мнение аборигенов сайта для них будет куда более авторитетным чем реклама в сми!А если полностью байкотировать такую продукцию то они ее найдут ее на других сайтах не столько авторитетных чем наш!!!
Раз уж здесь собрались истинные фанаты 3д так давайте народ просвещять!!! :) И тогда псевдорелизы постепенно перестанут скачивать и они отомрут сами сабой (как постепенно отмирает анаглиф)!Я ведь свое первое знакомство с 3д с анаглифа начал(и не я один наверное)!Теперь смотрю его только за компанию!!! :)))
 

Zagruzin
Это не конвертация. просто при постпроцессинге вручную разделили на поля, а накладываемые 3д спецэффекты как бы изначально и были в 3д :) В принципе это касается практически любого современного крупнобюджетного фильма, корректировке и наложению эффектов подвергается практический каждый кадр, потому не составляет особой сложности накладывать эти эффекты немножко под разными углами, для создания стереоэффекта.
Впрочем основной постпроцессинг был явно проведён до решения перевода на 3д, даже скорпиончики плоские, потому тут стерео чисто номинальное. Но еслиб задача о переводе в 3д стояла изначально, всё выглядело бы совершенно иначе.
 

да тут 3D типа "несколько плоских слоев, отстоящих друг от друга на 1-2 см" - больше было бы хуже, т.к. сразу станет заметно что слои то плоские
Особенно прикольно смотрится старик в лодке. Кажется что лодка из-за сильного крена сейчас намочиться в море - такие моменты лучше в 2D смотреть а то моск треснет