Торренты   
 
 


Deep Ocean Experience [2011г, 1080p, Anamorph OverUnder]

Рейтинг 3D:
Пока никто не голосовал
Рейтинг фильма:
Пока никто не голосовал
 
Вы должны быть авторизированы,
чтобы ставить оценки


Deep Ocean Experience
Год выпуска: 2011
Страна: Великобритания, Швеция
Жанр: Видовой, релакс
Продолжительность: 00:24:00 + 00:24:00
Перевод: Не требуется
Описание: "Больше людей путешествовали в космос, чем в глубокие океаны"
Сэр Ричард Брэнсон

Моё примечание

Новатор, своими усилиями в начале 70-х с нуля создал звукозаписывающую компанию "Virgin", на которой записывалось множество знаменитых рок музыкантов, владелец авиакомпании, несколько лет назад создал свою команду Формулы-1 - "Virgin", в которой с этого года контрольный пакет выкупил российский бизнес под руководством Николая Фоменко, и называется она теперь Marussia Virgin.
Более подробная любопытная информация об этом экстравагантном человеке - http://ru.wikipedia.org/wiki/%D0%A0%D0%B8%D1%87%D0%...1%81%D0%BE%D0%BD
"Глубокие океаны стали синонимом выражения "Чужой мир" - и вполне заслуженно"
Dr. Alan Jamlesson, Oceanlabs, Великобритания
Узнайте, какие невероятные рыбы живут в сумеречной зоне (глубже 1000 метров), и чужеродные существа правят в полуночной зоне (глубже 5000 метров).
Доп.информация: Компьютерная анимация. Понравилось муз.сопровождение (особенно во второй части - слегка напомнило J.-M. Jarre)Релиз: Проверено на встроенном плейере ТВ Samsung UE-C7000Формат 3d: Anamorph OverUnder
Качество: BDRip
Контейнер: MKV
Видео: AVC / 1920х1080p / 23,976 fps / 4996 & 7666 Kbps
Аудио: AC3 / 6 ch / 640 Kbps / 48 KHz

MediaInfo файла 2 (файл 1 отличается только битрейтом)

General
Complete name : F:\Downloads\DeepOceanExperience\DeepOceanExperience-2.mkv
Format : Matroska
File size : 1.42 GiB
Duration : 24mn 0s
Overall bit rate : 8 474 Kbps
Encoded date : UTC 2011-04-15 20:37:59
Writing application : mkvmerge v4.6.0 ('Still Crazy After All These Years') сборка от Mar 10 2011 02:50:32
Writing library : libebml v1.2.0 + libmatroska v1.1.0
Video
ID : 1
Format : AVC
Format/Info : Advanced Video Codec
Format profile : High@L4.1
Format settings, CABAC : Yes
Format settings, ReFrames : 4 frames
Codec ID : V_MPEG4/ISO/AVC
Duration : 24mn 0s
Bit rate : 7 666 Kbps
Width : 1 920 pixels
Height : 1 080 pixels
Display aspect ratio : 0.889
Original display aspect ratio : 16:9
Frame rate : 23.976 fps
Color space : YUV
Chroma subsampling : 4:2:0
Bit depth : 8 bits
Scan type : Progressive
Bits/(Pixel*Frame) : 0.154
Stream size : 1.29 GiB (90%)
Writing library : x264 core 113 r1884 7313bb5
Encoding settings : cabac=1 / ref=4 / deblock=1:-1:-1 / analyse=0x3:0x113 / me=umh / subme=9 / psy=1 / psy_rd=1.00:0.15 / mixed_ref=1 / me_range=16 / chroma_me=1 / trellis=2 / 8x8dct=1 / cqm=0 / deadzone=21,11 / fast_pskip=1 / chroma_qp_offset=-3 / threads=3 / sliced_threads=0 / nr=0 / decimate=1 / interlaced=0 / constrained_intra=0 / bframes=4 / b_pyramid=2 / b_adapt=2 / b_bias=0 / direct=3 / weightb=1 / open_gop=0 / weightp=2 / keyint=250 / keyint_min=23 / scenecut=40 / intra_refresh=0 / rc_lookahead=40 / rc=crf / mbtree=1 / crf=20.0 / qcomp=0.60 / qpmin=10 / qpmax=69 / qpstep=4 / vbv_maxrate=50000 / vbv_bufsize=50000 / crf_max=0.0 / nal_hrd=none / ip_ratio=1.40 / aq=1:1.00
Audio
ID : 2
Format : AC-3
Format/Info : Audio Coding 3
Mode extension : CM (complete main)
Codec ID : A_AC3
Duration : 24mn 0s
Bit rate mode : Constant
Bit rate : 640 Kbps
Channel(s) : 6 channels
Channel positions : Front: L C R, Side: L R, LFE
Sampling rate : 48.0 KHz
Bit depth : 16 bits
Compression mode : Lossy
Stream size : 110 MiB (8%)

Скриншоты файла 2

Лог кодирования файла 2

Благодарности релизеру (3)

Торрент:

Статус:

Размер:

Зарегистрирован   [ 2011-04-18 20:34 ]

проверено

2.39 GB