Торренты   
 
 

 

Санктум в 3Д / Sanctum in 3D (Алистер Грирсон / Alister Grirson) [2011 г., Anamorph SideBySide]

Рейтинг 3D:
96 голосов
8.1
Рейтинг фильма:
94 голосов
8.1
 
Вы должны быть авторизированы,
чтобы ставить оценки


Санктум в 3Д / Sanctum in 3D
Год выпуска: 2011
Страна: США, Австралия
Жанр: боевик, триллер, драма, приключения
Продолжительность: 01:48
Перевод: Профессиональный (полное дублирование)
Режиссер: Алистер Грирсон / Alister Grirson
В ролях: Ричард Роксбург, Йоан Гриффит, Риз Уэйкфилд, Элис Паркинсон, Дэниэл Уилли, Кристофер Бэйкер, Элисон Крэтчли, Крамер Кэйн, Эндрю Хансен, Джон Гарвин
Описание: Группа дайверов предпринимает очень рискованную экспедицию в самую большую систему пещер на Земле — невероятно красивую и почти недоступную. Неожиданный тропический шторм вынуждает их спуститься глубоко в пещеры. Единственное спасение для исследователей — найти неизвестный второй выход к морю, преодолевая неистовую стихию бушующих вод, коварные ловушки подземелий и смертельный ужас…
Доп. информация: Создатель фильмов “Титаник” и “Аватар”, Джеймс Кэмерон, заставит Вас затаить дыхание. Группа глубоководных дайверов сталкивается с опасными для жизни ситуациями в не отмеченных на карте неизведанных океанских глубинах.
Формат 3d: Anamorph SideBySide
Порядок ракурсов: Параллельная пара

Скриншоты





МедиаИнфо

Общее
Уникальный идентификатор : 211572986339147531155603948443704848519 (0x9F2B79986189693C8F5511F92C197087)
Полное имя : D:\Sanctum 3D Half-SBS (1).mkv
Формат : Matroska
Размер файла : 9,08 Гбайт
Продолжительность : 1 ч. 48 м.
Общий поток : 11,9 Мбит/сек
Название фильма : Sanctum
Дата кодирования : UTC 2011-04-18 13:07:47
Программа кодирования : mkvmerge v4.0.0 ('The Stars were mine') сборка от Jun 11 2010 23:24:27
Библиотека кодирования : libebml v1.0.0 + libmatroska v1.0.0
Видео
Идентификатор : 1
Формат : AVC
Формат/Информация : Advanced Video Codec
Профиль формата : High@L4.0
Параметр CABAC формата : Да
Параметр ReFrames формата : 4 кадры
Параметры GOP формата : M=2, N=5
Идентификатор кодека : V_MPEG4/ISO/AVC
Продолжительность : 1 ч. 48 м.
Битрейт : 9428 Кбит/сек
Номинальный битрейт : 10000 Кбит/сек
Ширина : 1920 пикс.
Высота : 1080 пикс.
Соотношение сторон : 16:9
Режим частоты кадров : Переменный
Частота кадров : 23,976 кадр/сек
Цветовое пространство : YUV
Подвыборка цветности : 4:2:0
Битовая глубина : 8 бит
Тип развёртки : Прогрессивная
Бит/(Пиксели*Кадры) : 0.190
Размер потока : 7,17 Гбайт (79%)
Библиотека кодирования : x264 core 107 r1745 4785e8e
Настройки программы : cabac=1 / ref=3 / deblock=1:0:0 / analyse=0x3:0x113 / me=hex / subme=7 / psy=1 / psy_rd=1.00:0.00 / mixed_ref=1 / me_range=16 / chroma_me=1 / trellis=1 / 8x8dct=1 / cqm=0 / deadzone=21,11 / fast_pskip=1 / chroma_qp_offset=-2 / threads=6 / sliced_threads=0 / nr=0 / decimate=1 / interlaced=0 / constrained_intra=0 / bframes=3 / b_pyramid=2 / b_adapt=1 / b_bias=0 / direct=1 / weightb=1 / open_gop=0 / weightp=2 / keyint=250 / keyint_min=25 / scenecut=40 / intra_refresh=0 / rc_lookahead=40 / rc=abr / mbtree=1 / bitrate=10000 / ratetol=1.0 / qcomp=0.60 / qpmin=10 / qpmax=51 / qpstep=4 / ip_ratio=1.41 / aq=1:1.00
Язык : English
Аудио #1
Идентификатор : 2
Формат : DTS
Формат/Информация : Digital Theater Systems
Идентификатор кодека : A_DTS
Продолжительность : 1 ч. 48 м.
Вид битрейта : Постоянный
Битрейт : 1510 Кбит/сек
Канал(ы) : 6 канала(ов)
Расположение каналов : Front: L C R, Side: L R, LFE
Частота : 48,0 КГц
Битовая глубина : 24 бит
Метод сжатия : С потерями
Задержка видео : 11 мс.
Размер потока : 1,15 Гбайт (13%)
Язык : English
Аудио #2
Идентификатор : 3
Формат : AC-3
Формат/Информация : Audio Coding 3
Расширение режима : CM (complete main)
Идентификатор кодека : A_AC3
Продолжительность : 1 ч. 48 м.
Вид битрейта : Постоянный
Битрейт : 384 Кбит/сек
Канал(ы) : 6 канала(ов)
Расположение каналов : Front: L C R, Side: L R, LFE
Частота : 48,0 КГц
Битовая глубина : 16 бит
Метод сжатия : С потерями
Размер потока : 299 Мбайт (3%)
Язык: Russian
Аудио #3
Идентификатор : 4
Формат : AC-3
Формат/Информация : Audio Coding 3
Расширение режима : CM (complete main)
Идентификатор кодека : A_AC3
Продолжительность : 1 ч. 48 м.
Вид битрейта : Постоянный
Битрейт : 384 Кбит/сек
Канал(ы) : 6 канала(ов)
Расположение каналов : Front: L C R, Side: L R, LFE
Частота : 48,0 КГц
Битовая глубина : 16 бит
Метод сжатия : С потерями
Размер потока : 299 Мбайт (3%)
Язык: English
Остальные раздачи этого фильма (4)
Благодарности релизеру (44)

Торрент:

Статус:

Размер:

Зарегистрирован   [ 2011-12-16 23:15 ]

проверено

9.08 GB