Торренты   
 
 

 

Pапyнцeль: Зaпyтaнная иcтopия 3D / Таnglеd 3D (Натан Грено, Байрон Ховард) [2010 г., 720p, Anaglyph, red'cyan]

Рейтинг 3D:
1 голосов
8.0
Рейтинг фильма:
1 голосов
8.0
 
Вы должны быть авторизированы,
чтобы ставить оценки


Pапyнцeль: Зaпyтaнная иcтopия 3D / Таnglеd 3D
Год выпуска: 2010
Страна: США
Жанр: Мультфильм, Мюзикл, Фэнтези, Комедия
Продолжительность: 01:40:16
Перевод: Профессиональный (полное дублирование)
Режиссер: Натан Грено, Байрон Ховард
В ролях: Мэнди Мур, Захари Левай, Донна Мерфи, Рон Перлман, М.К.Гейни, Джефри Тэмбор, Брэд Гэррет, Пол Ф.Томпкинс, Ричард Кил, Делани Роуз Стейн.
Описание: Обаятельный разбойник Флинн путешествует по жизни с легкостью, лишь потому, что он красив, болтлив и удачлив. И казалось, фортуна всегда на его стороне, пока однажды он не выбирает высокую башню в густой чаще леса в качестве «спокойного» убежища. Флинн оказывается связанным по рукам и ногам юной красавицей по имени Рапунцель. Если вы думаете, что самое интересное в ней — это 21 метр волшебных золотистых волос, то вы заблуждаетесь! Запертая в башне и отчаянно ищущая приключений, Рапунцель решает использовать Флинна в качестве билета в большой мир. Сначала комичное похищение, затем невинный шантаж — и вот наши герои на воле. Вместе с главными героями в авантюрное путешествие отправятся бравый конь-ищейка Максимус, ручной хамелеон и шайка сумасбродных разбойников.
Релиз:
Доп. информация: Формат: MKV
Видео:
AVC; 1280х720p; 23,976 fps; 3462 Kbps
Аудио:
Russian; AC-3; 48,0 Khz; 640 Kbps; 6ch(Front: L C R, Side: L R, LFE)
English; AC-3; 48,0 Khz; 384 Kbps; 6ch(Front: L C R, Side: L R, LFE)
Субтитры:
Russian, English

Формат 3d: Anaglyph
Цвета очков:

MediaInfo

Общее
UniqueID/String : 236803680652888774020113213802983699531 (0xB226BADE127415A6AA107E602213B44B)
Полное имя : Rapuncel 3D_AnRC.mkv
Формат : Matroska
Размер файла : 3,21 Гбайт
Продолжительность : 1 ч. 40 м.
Общий поток : 4577 Кбит/сек
Дата кодирования : UTC 2011-04-18 15:45:39
Программа кодирования : mkvmerge v4.6.0 ('Still Crazy After All These Years') сборка от Mar 13 2011 18:33:29
Библиотека кодирования : libebml v1.2.0 + libmatroska v1.1.0
Видео
Идентификатор : 1
Формат : AVC
Формат/Информация : Advanced Video Codec
Профиль формата : High@L4.1
Параметр CABAC формата : Да
Параметр ReFrames формата : 3 кадры
Режим смешивания : Header stripping
Идентификатор кодека : V_MPEG4/ISO/AVC
Продолжительность : 1 ч. 40 м.
Вид битрейта : Переменный
Битрейт : 3500 Кбит/сек
Максимальный битрейт : 14,0 Мбит/сек
Ширина : 1280 пикс.
Высота : 720 пикс.
Соотношение сторон : 16:9
Частота кадров : 23,976 кадр/сек
Цветовое пространство : YUV
Подвыборка цветности : 4:2:0
Битовая глубина : 8 бит
Тип развёртки : Прогрессивная
Бит/(Пиксели*Кадры) : 0.158
Размер потока : 2,42 Гбайт (76%)
Библиотека кодирования : x264 core 114 r1913 5fd3dce
Настройки программы : cabac=1 / ref=4 / deblock=1:-1:-1 / analyse=0x3:0x113 / me=hex / subme=9 / psy=1 / psy_rd=1.00:0.15 / mixed_ref=1 / me_range=16 / chroma_me=1 / trellis=1 / 8x8dct=1 / cqm=0 / deadzone=21,11 / fast_pskip=1 / chroma_qp_offset=-3 / threads=3 / sliced_threads=0 / slices=4 / nr=0 / decimate=1 / interlaced=0 / constrained_intra=0 / bframes=3 / b_pyramid=1 / b_adapt=1 / b_bias=0 / direct=1 / weightb=1 / open_gop=1 / weightp=0 / keyint=24 / keyint_min=2 / scenecut=40 / intra_refresh=0 / rc_lookahead=24 / rc=abr / mbtree=1 / bitrate=3500 / ratetol=1.0 / qcomp=0.60 / qpmin=0 / qpmax=69 / qpstep=4 / vbv_maxrate=14000 / vbv_bufsize=14500 / nal_hrd=vbr / ip_ratio=1.40 / aq=1:1.00
Основные цвета : BT.709-5, BT.1361, IEC 61966-2-4, SMPTE RP177
Характеристики трансфера : BT.709-5, BT.1361
Коэффициенты матрицы : BT.709-5, BT.1361, IEC 61966-2-4 709, SMPTE RP177
Аудио #1
Идентификатор : 2
Формат : AC-3
Формат/Информация : Audio Coding 3
Расширение режима : CM (complete main)
Режим смешивания : Header stripping
Идентификатор кодека : A_AC3
Продолжительность : 1 ч. 40 м.
Вид битрейта : Постоянный
Битрейт : 640 Кбит/сек
Канал(ы) : 6 канала(ов)
Расположение каналов : Front: L C R, Side: L R, LFE
Частота : 48,0 КГц
Битовая глубина : 16 бит
Метод сжатия : С потерями
Размер потока : 459 Мбайт (14%)
Заголовок : AC3, 6 ch, 640 Kbps, 48,0 Khz
Язык : Russian
Аудио #2
Идентификатор : 3
Формат : AC-3
Формат/Информация : Audio Coding 3
Расширение режима : CM (complete main)
Режим смешивания : Header stripping
Идентификатор кодека : A_AC3
Продолжительность : 1 ч. 40 м.
Вид битрейта : Постоянный
Битрейт : 384 Кбит/сек
Канал(ы) : 6 канала(ов)
Расположение каналов : Front: L C R, Side: L R, LFE
Частота : 48,0 КГц
Битовая глубина : 16 бит
Метод сжатия : С потерями
Размер потока : 275 Мбайт (8%)
Заголовок : AC3, 6 ch, 384 Kbps, 48,0 Khz
Язык : English
Текст #1
Идентификатор : 4
Формат : UTF-8
Идентификатор кодека : S_TEXT/UTF8
Идентификатор кодека/Информация : UTF-8 Plain Text
Язык : Russian
Текст #2
Идентификатор : 5
Формат : UTF-8
Идентификатор кодека : S_TEXT/UTF8
Идентификатор кодека/Информация : UTF-8 Plain Text
Язык : English
Меню
00:00:00.000 : :The Lost Princess
00:08:20.291 : :Mother Knows Best
00:15:42.608 : :Meet Flynn Rider
00:24:40.562 : :Making A Deal
00:34:41.496 : :The Snuggly Duckling
00:42:30.214 : :The Escape
00:50:25.272 : :In The Woods
00:59:21.266 : :The Best Day Of Your Life
01:10:34.981 : :Betrayed
01:19:22.758 : :The Rescue
01:25:21.366 : :New Dream
01:31:20.225 : :End Credits

Скриншоты








Мои раздачи в анаглифе
Благодарности релизеру (0)

Торрент:

Статус:

Размер:

Зарегистрирован   [ 2011-04-18 20:14 ]

проверено

3.21 GB