Торренты   
 
 

 

Мегамозг / Megamind (Том МакГрат) [2010 г., BDRip 1080p, Full OverUnder]

Рейтинг 3D:
30 голосов
8.5
Рейтинг фильма:
35 голосов
8.8
 
Вы должны быть авторизированы,
чтобы ставить оценки


Мегамозг / Megamind
Год выпуска: 2010
Страна: США
Жанр: Мультфильм, Фантастика, Боевик, Комедия, Семейный
Продолжительность: 01:35:33
Перевод: Профессиональный (полное дублирование)
Режиссер: Том МакГрат
В ролях: Илья Исаев, Наталья Грачева, Даниель Кайгермазов, Александр Гаврилин, Денис Беспалый, Александр Новиков.
Описание: Мегамозг — самый гениальный и самый неудачливый злодей в мире. Вот уже много лет он пытается покорить Метро-Сити самыми разнообразными способами. Но каждая такая попытка кончается провалом по вине супергероя по имени Метро-Мэн. Но злодей убивает супергероя, и внезапно Мегамозг лишается цели в жизни. Суперзлодей без супергероя.
Единственный выход — создать нового супергероя, которого он называет Титаном. Но Титан решает, что быть злодеем куда интереснее. Вот только ему не хочется править миром, он желает его уничтожить. Мегамозгу предстоит непростой выбор. Сможет ли злой гений стать героем — спасителем человечества.
Формат 3d: OverUnder
Видео: AVC, h264, 1920х1632, 23,976 кадр/сек, 12,1 Мбит/сек
Аудио: Rus, AC-3, 6 каналов, 640 Кбит/сек, 48,0 КГц
Аудио: Eng, AC-3, 6 каналов, 640 Кбит/сек, 48,0 КГц

Скриншоты



me

Общее
Уникальный идентификатор : 221558279959391810537300079329256622887 (0xA6AE92949B8CE9D4BEC0997DA6CB4B27)
Полное имя : D:\Megamind.mkv
Формат : Matroska
Размер файла : 9,13 Гбайт
Продолжительность : 1 ч. 35 м.
Общий поток : 13,7 Мбит/сек
Дата кодирования : UTC 2011-04-20 07:17:25
Программа кодирования : mkvmerge v3.4.0 ('Rapunzel') сборка от May 15 2010 09:38:20
Библиотека кодирования : libebml v0.8.0 + libmatroska v0.9.0
Видео
Идентификатор : 1
Формат : AVC
Формат/Информация : Advanced Video Codec
Профиль формата : High@L5.0
Параметр CABAC формата : Да
Параметр ReFrames формата : 4 кадры
Идентификатор кодека : V_MPEG4/ISO/AVC
Продолжительность : 1 ч. 35 м.
Битрейт : 12,1 Мбит/сек
Ширина : 1920 пикс.
Высота : 1632 пикс.
Соотношение сторон : 1,176
Частота кадров : 23,976 кадр/сек
Цветовое пространство : YUV
Подвыборка цветности : 4:2:0
Битовая глубина : 8 бит
Тип развёртки : Прогрессивная
Бит/(Пиксели*Кадры) : 0.161
Размер потока : 8,10 Гбайт (89%)
Библиотека кодирования : x264 core 115 r1937 aa21558
Настройки программы : cabac=1 / ref=4 / deblock=1:-1:-1 / analyse=0x3:0x113 / me=umh / subme=9 / psy=1 / psy_rd=1.00:0.00 / mixed_ref=1 / me_range=16 / chroma_me=1 / trellis=2 / 8x8dct=1 / cqm=0 / deadzone=21,11 / fast_pskip=1 / chroma_qp_offset=-3 / threads=9 / sliced_threads=0 / nr=0 / decimate=1 / interlaced=0 / bluray_compat=0 / constrained_intra=0 / bframes=6 / b_pyramid=0 / b_adapt=2 / b_bias=0 / direct=3 / weightb=1 / open_gop=0 / weightp=2 / keyint=250 / keyint_min=23 / scenecut=40 / intra_refresh=0 / rc_lookahead=40 / rc=crf / mbtree=1 / crf=18.0 / qcomp=0.60 / qpmin=0 / qpmax=69 / qpstep=4 / ip_ratio=1.40 / aq=1:1.00
Язык : English
Аудио #1
Идентификатор : 2
Формат : AC-3
Формат/Информация : Audio Coding 3
Расширение режима : CM (complete main)
Идентификатор кодека : A_AC3
Продолжительность : 1 ч. 35 м.
Вид битрейта : Постоянный
Битрейт : 640 Кбит/сек
Канал(ы) : 6 канала(ов)
Расположение каналов : Front: L C R, Side: L R, LFE
Частота : 48,0 КГц
Битовая глубина : 16 бит
Метод сжатия : С потерями
Задержка видео : 24 мс.
Размер потока : 437 Мбайт (5%)
Заголовок : Лицензия
Язык : Russian
Аудио #2
Идентификатор : 3
Формат : AC-3
Формат/Информация : Audio Coding 3
Расширение режима : CM (complete main)
Идентификатор кодека : A_AC3
Продолжительность : 1 ч. 35 м.
Вид битрейта : Постоянный
Битрейт : 640 Кбит/сек
Канал(ы) : 6 канала(ов)
Расположение каналов : Front: L C R, Side: L R, LFE
Частота : 48,0 КГц
Битовая глубина : 16 бит
Метод сжатия : С потерями
Размер потока : 437 Мбайт (5%)
Язык : English
Скрины сравнения http://screenshotcomparison.com/comparison/45391
Остальные раздачи этого фильма (4)
Благодарности релизеру (5)

Торрент:

Статус:

Размер:

Зарегистрирован   [ 2011-04-20 18:03 ]

проверено

9.13 GB