Торренты   
 
 


Зелёный Шершень в 3Д / The Green Hornet 3D (Мишель Гондри / Michel Gondry) [2011 г., Anamorph SideBySide]

Рейтинг 3D:
Пока никто не голосовал
Рейтинг фильма:
Пока никто не голосовал
 
Вы должны быть авторизированы,
чтобы ставить оценки


Зелёный Шершень в 3Д / The Green Hornet 3D
Год выпуска: 2011
Страна: США
Жанр: Боевик, комедия, криминал
Продолжительность: 01:58:53
Перевод: Профессиональный (полное дублирование)
Режиссер: Мишель Гондри / Michel Gondry
В ролях: Сет Роген, Джей Чоу, Кристоф Вальц, Кэмерон Диаз, Том Уилкинсон, Дэвид Харбор, Эдвард Джеймс Олмос, Джэми Харрис, Чад Коулмэн, Эдвард Ферлонг
Описание: Сын медиа-магната «прожигает» свою жизнь в вечных пьянках и бесчисленных случайных связях. Но после неожиданной смерти отца он наконец осознает бесцельность своего существования и решает все изменить. Вместе с другом они становятся супергероями, которые борются с преступностью ее же методами, совершенно не считаясь с законом...
Формат 3d: Anamorph SideBySide
Порядок ракурсов: Параллельная пара

Скриншоты

МедиаИнфо

Общее
Уникальный идентификатор : 208121922300025564604242106276172222739 (0x9C92D30059D8C6E4835C77269E935113)
Полное имя : D:\Green_Hornet_3D._3D4U (1).mkv
Формат : Matroska
Размер файла : 10,3 Гбайт
Продолжительность : 1 ч. 58 м.
Общий поток : 12,4 Мбит/сек
Название фильма : Green Hornet - Encode by 3D4U- www.3dblurayiso.com
Дата кодирования : UTC 2011-04-20 15:53:51
Программа кодирования : mkvmerge v4.0.0 ('The Stars were mine') сборка от Jun 11 2010 23:24:27
Библиотека кодирования : libebml v1.0.0 + libmatroska v1.0.0
Видео
Идентификатор : 1
Формат : AVC
Формат/Информация : Advanced Video Codec
Профиль формата : High@L4.1
Параметр CABAC формата : Да
Параметр ReFrames формата : 2 кадры
Идентификатор кодека : V_MPEG4/ISO/AVC
Продолжительность : 1 ч. 58 м.
Вид битрейта : Переменный
Битрейт : 11,8 Мбит/сек
Максимальный битрейт : 18,1 Мбит/сек
Ширина : 1920 пикс.
Высота : 1080 пикс.
Соотношение сторон : 16:9
Частота кадров : 23,976 кадр/сек
Цветовое пространство : YUV
Подвыборка цветности : 4:2:0
Битовая глубина : 8 бит
Тип развёртки : Прогрессивная
Бит/(Пиксели*Кадры) : 0.238
Размер потока : 9,81 Гбайт (95%)
Заголовок : Encode by 3D4U- www.3dblurayiso.com
Язык : English
Аудио
Идентификатор : 2
Формат : AC-3
Формат/Информация : Audio Coding 3
Расширение режима : CM (complete main)
Идентификатор кодека : A_AC3
Продолжительность : 1 ч. 58 м.
Вид битрейта : Постоянный
Битрейт : 384 Кбит/сек
Канал(ы) : 6 канала(ов)
Расположение каналов : Front: L C R, Side: L R, LFE
Частота : 48,0 КГц
Битовая глубина : 16 бит
Метод сжатия : С потерями
Размер потока : 327 Мбайт (3%)
Заголовок : PID 4352
Язык : Russian
Благодарности релизеру (0)

Торрент:

Статус:

Размер:

Зарегистрирован   [ 2011-04-20 21:33 ]

проверено

10.33 GB