Торренты   
 
 

 

Сезон охоты 3Д / Open Season 3D (Роджер Аллерс / Roger Allers, Джилл Калтон / Jill Culton, Энтони Стаччи / Anthony Stacchi) [2006 г., Anamorph SideBySide]

Рейтинг 3D:
2 голосов
8.5
Рейтинг фильма:
2 голосов
8.5
 
Вы должны быть авторизированы,
чтобы ставить оценки


Сезон охоты 3Д / Open Season 3D
Год выпуска: 2006
Страна: США
Жанр: комедия, приключения, семейный, мультфильм
Продолжительность: 01:26:15
Перевод: Профессиональный (полное дублирование)
Режиссер: Роджер Аллерс / Roger Allers, Джилл Калтон / Jill Culton, Энтони Стаччи / Anthony Stacchi
В ролях: Мартин Лоуренс (Boog, озвучка), Эштон Катчер (Elliot, озвучка), Гэри Синиз (Shaw, озвучка), Дебра Мессинг (Beth, озвучка), Билли Коннолли (McSquizzy, озвучка), Джорджия Энджел (Bobbie, озвучка), Джон Фавро (Reilly, озвучка), Джейн Краковски (Giselle, озвучка), Гордон Тутусис (Gordy, озвучка), Патрик Варбертон (Ian, озвучка), Коуди Камерон (Mr. Weenie, озвучка), Ника Футтерман (Rosie, озвучка)
Описание: Эллиот - ужасно болтливый и легкомысленный олень, у которого только одна проблема: как пережить охотничий сезон? А Буг - огромный и раздражительный медведь, у которого две проблемы: сезон охоты и... Эллиот! Если бы не толпы людей с ружьями, готовящихся наполнить их лес ураганной пальбой, эти двое никогда бы не стали иметь друг с другом никакого дела. Но выходит так, что только вместе они способны придумать, как им спасти свои шкуры. И вот, Бугаю и Эллиоту приходит в головы поистине блестящая идея. Так как лучшая защита - это нападение, они решают мобилизовать все зверье, чтобы превратить родную чащу в крепость и объявить двуногим злодеям партизанскую войну. Поистине, этот охотничий сезон будет полон сюрпризов. Для охотников - в первую очередь!..
Доп. информация: Бюджет: $85 000 000
Сборы в США: $84 303 558
Сборы в России: $6 512 274
Сборы в мире: $189 088 279
Мировая премьера: 29 сентября 2006
Релиз на DVD: 18 ноября 2010, 15 октября 2009, 20 января 2011, «Columbia\Sony»
Релиз на Blu-ray: 28 мая 2009, 21 октября 2010, «Columbia\Sony»
Формат 3d: Anamorph SideBySide
Порядок ракурсов: Параллельная пара
Формат: MKV
Видео кодек: x264
Видео: MPEG4 Video (H264) 1920x1080p 23.98fps 9148 Kbps
Аудио кодек: AC3
Аудио 1: Russian : Dolby AC3 48000Hz 5.1ch 640 kbps
Аудио 2: English : Dolby AC3 48000Hz 5.1ch 640 kbps

Скриншоты



MediaInfo

Format : Matroska
File size : 6.41 GiB
Duration : 1h 26mn
Overall bit rate : 10.6 Mbps
Encoded date : UTC 2010-12-29 09:14:31
Writing application : mkvmerge v2.9.7 ('Tenderness') built on Jul 1 2009 18:43:35
Writing library : libebml v0.7.7 + libmatroska v0.8.1
Video
ID : 1
Format : AVC
Format/Info : Advanced Video Codec
Format profile : High@L4.0
Format settings, CABAC : Yes
Format settings, ReFrames : 4 frames
Muxing mode : Container profile=Unknown@4.0
Codec ID : V_MPEG4/ISO/AVC
Duration : 1h 26mn
Bit rate : 9 148 Kbps
Width : 1 920 pixels
Height : 1 080 pixels
Display aspect ratio : 16:9
Frame rate : 23.976 fps
Color space : YUV
Chroma subsampling : 4:2:0
Bit depth : 8 bits
Scan type : Progressive
Bits/(Pixel*Frame) : 0.184
Stream size : 5.51 GiB (86%)
Writing library : x264 core 112 r1834 a51816a
Encoding settings : cabac=1 / ref=4 / deblock=1:-2:-2 / analyse=0x3:0x113 / me=umh / subme=7 / psy=1 / psy_rd=1.00:0.15 / mixed_ref=1 / me_range=16 / chroma_me=1 / trellis=2 / 8x8dct=1 / cqm=0 / deadzone=21,11 / fast_pskip=1 / chroma_qp_offset=-3 / threads=6 / sliced_threads=0 / nr=0 / decimate=1 / interlaced=0 / constrained_intra=0 / bframes=6 / b_pyramid=0 / b_adapt=2 / b_bias=0 / direct=3 / weightb=1 / open_gop=0 / weightp=2 / keyint=250 / keyint_min=23 / scenecut=40 / intra_refresh=0 / rc_lookahead=40 / rc=crf / mbtree=1 / crf=18.0 / qcomp=0.60 / qpmin=10 / qpmax=51 / qpstep=4 / ip_ratio=1.40 / aq=1:1.00
Language : English
Audio #1
ID : 2
Format : AC-3
Format/Info : Audio Coding 3
Mode extension : CM (complete main)
Codec ID : A_AC3
Duration : 1h 26mn
Bit rate mode : Constant
Bit rate : 640 Kbps
Channel(s) : 6 channels
Channel positions : Front: L C R, Side: L R, LFE
Sampling rate : 48.0 KHz
Bit depth : 16 bits
Stream size : 395 MiB (6%)
Title : Dolby Digital Audio / 5.1 / 48 kHz / 640 kbps; Дубляж
Language : Russian
Audio #2
ID : 3
Format : AC-3
Format/Info : Audio Coding 3
Mode extension : CM (complete main)
Codec ID : A_AC3
Duration : 1h 26mn
Bit rate mode : Constant
Bit rate : 640 Kbps
Channel(s) : 6 channels
Channel positions : Front: L C R, Side: L R, LFE
Sampling rate : 48.0 KHz
Bit depth : 16 bits
Stream size : 395 MiB (6%)
Title : Dolby Digital Audio / 5.1 / 48 kHz / 640 kbps; Original
Language : English
Menu
00:00:00.000 : en:00:00:00.000
00:05:59.985 : en:00:05:59.985
00:09:12.969 : en:00:09:12.969
00:16:57.016 : en:00:16:57.016
00:21:28.704 : en:00:21:28.704
00:23:41.837 : en:00:23:41.837
00:28:17.779 : en:00:28:17.779
00:33:53.615 : en:00:33:53.615
00:38:15.752 : en:00:38:15.752
00:45:34.023 : en:00:45:34.023
00:50:20.726 : en:00:50:20.726
00:56:51.617 : en:00:56:51.617
01:02:02.552 : en:01:02:02.552
01:07:43.601 : en:01:07:43.601
01:12:14.330 : en:01:12:14.330
01:14:59.120 : en:01:14:59.120
Благодарности релизеру (3)

Торрент:

Статус:

Размер:

Зарегистрирован   [ 2011-04-21 08:23 ]

проверено

6.41 GB