Торренты   
 
 


Studio B [2011 г., 720р, Anamorph SideBySide]

Рейтинг 3D:
Пока никто не голосовал
Рейтинг фильма:
Пока никто не голосовал
 
Вы должны быть авторизированы,
чтобы ставить оценки


Studio B
Год выпуска: 2011
Жанр: Musik / Animation
Продолжительность: 3 mn 58 s
Описание:

MediaInfo

Format : AVC
Format/Info : Advanced Video Codec
Format profile : High@L3.1
Format settings, CABAC : Yes
Format settings, ReFrames : 1 frame
Codec ID : avc1
Codec ID/Info : Advanced Video Coding
Duration : 3mn 58s
Bit rate mode : Variable
Bit rate : 2 566 Kbps
Maximum bit rate : 12.2 Mbps
Width : 1 280 pixels
Height : 720 pixels
Display aspect ratio : 16:9
Frame rate mode : Variable
Frame rate : 29.970 fps
Minimum frame rate : 29.412 fps
Maximum frame rate : 30.303 fps
Resolution : 24 bits
Colorimetry : 4:2:0
Scan type : Progressive
Bits/(Pixel*Frame) : 0.093
Stream size : 73.0 MiB (94%)
Bit rate : 152 Kbps
Maximum bit rate : 185 Kbps
Channel(s) : 2 channels
Channel positions : L R
Sampling rate : 44.1 KHz
Resolution : 16 bits
Stream size : 4.32 MiB (6%)
Формат 3d: Anamorph SideBySide
Порядок ракурсов: Перекрестная пара.
Видео: 1280 X 720

Скриншоты


Благодарности релизеру (0)

Торрент:

Статус:

Размер:

Зарегистрирован   [ 2011-10-30 16:23 ]

* не проверено

78 MB