Торренты   
 
 

 

Шевели ластами! (полная версия) в 3Д / Sammy's avonturen: De geheime doorgang in 3D (Бен Стассен / Ben Stassen) [2010 г., Anamorph OverUnder]

Рейтинг 3D:
65 голосов
9.2
Рейтинг фильма:
63 голосов
8.1
 
Вы должны быть авторизированы,
чтобы ставить оценки


Шевели ластами! (полная версия) в 3Д / Sammy's avonturen: De geheime doorgang in 3D
Год выпуска: 2010
Страна: Бельгия
Жанр: приключения, мультфильм
Продолжительность: 01:25:35
Перевод: Профессиональный дублированный (с лицензии)
+ многоголосый закадровый (3D-RuGroup) в добавленых сценах.
Субтитры: отсутствуют
Режиссер: Бен Стассен / Ben Stassen
Роли озвучивали: Мелани Гриффит, Изабелль Фюрман, Юрий Ловенталь, Энтони Андерсон, Сидни Хоуп Баннер, Эд Бегли мл., Даррен Капоцци, Пэт Кэрролл, Крис Эндрю Кулла, Тим Карри
Описание: Для маленькой черепашки подводный мир — самое безопасное место. Здесь акулы, пираньи, змеи, а на берегу поджидают люди. И наш маленький Сэмми хочет узнать весь мир, от полярных льдов до субтропиков. Путешествие продлится ровно полвека, начиная с 1959 года, за это время даже климат успеет измениться.Релиз группы:
Качество: BDRip
Формат: MKV
Формат 3d: Half OverUnder / Вертикальная анаморфная стереопара
Порядок ракурсов: Правый ракурс верхний.
Видео кодек: x264
Аудио кодек: АС-3
Видео: MPEG4 Video (H264) 1920x1080 23.98fps 8396 Kbps
Аудио: Russian AC-3 48000Hz 6ch 640 kbps 16 бит
Аудио 2: French AC-3 48000Hz 6ch 640 kbps 16 бит
Субтитры: Нет-

Скриншоты



Медиа инфо

Общее
Уникальный идентификатор : 215760419392751310919210481897826737090 (0xA251F1FC0C6A2E48A5ADE19A8C58DBC2)
Полное имя :Sammy's.Avonturen.2010.BD3DRip.AVC.Half_OU.Rus.Fra.3D-RuGroup.mkv
Формат : Matroska
Размер файла : 5,90 Гбайт
Продолжительность : 1 ч. 25 м.
Общий поток : 9866 Кбит/сек
Дата кодирования : UTC 2011-04-21 15:35:50
Программа кодирования : mkvmerge v3.4.0 ('Rapunzel') сборка от May 15 2010 09:38:20
Библиотека кодирования : libebml v0.8.0 + libmatroska v0.9.0
Видео
Идентификатор : 1
Формат : AVC
Формат/Информация : Advanced Video Codec
Профиль формата : High@L4.1
Параметр CABAC формата : Да
Параметр ReFrames формата : 3 кадры
Идентификатор кодека : V_MPEG4/ISO/AVC
Продолжительность : 1 ч. 25 м.
Вид битрейта : Переменный
Битрейт : 8389 Кбит/сек
Максимальный битрейт : 40,0 Мбит/сек
Ширина : 1920 пикс.
Высота : 1080 пикс.
Соотношение сторон : 0,889
Соотношение сторон в оригинале : 16:9
Частота кадров : 23,976 кадр/сек
Цветовое пространство : YUV
Подвыборка цветности : 4:2:0
Битовая глубина : 8 бит
Тип развёртки : Прогрессивная
Бит/(Пиксели*Кадры) : 0.169
Размер потока : 5,02 Гбайт (85%)
Заголовок : Sammy's.Avonturen.2010.BD3DRip.AVC.Half_OU.3D-RuGroup
Библиотека кодирования : x264 core 112 r1834 a51816a
Настройки программы : cabac=1 / ref=4 / deblock=1:-1:-1 / analyse=0x3:0x113 / me=umh / subme=8 / psy=1 / psy_rd=1.00:0.15 / mixed_ref=1 / me_range=16 / chroma_me=1 / trellis=1 / 8x8dct=1 / cqm=0 / deadzone=21,11 / fast_pskip=1 / chroma_qp_offset=-3 / threads=6 / sliced_threads=0 / slices=4 / nr=0 / decimate=1 / interlaced=0 / constrained_intra=0 / bframes=4 / b_pyramid=1 / b_adapt=2 / b_bias=0 / direct=3 / weightb=1 / open_gop=0 / weightp=2 / keyint=250 / keyint_min=23 / scenecut=40 / intra_refresh=0 / rc_lookahead=50 / rc=crf / mbtree=1 / crf=18.0 / qcomp=0.60 / qpmin=0 / qpmax=51 / qpstep=4 / vbv_maxrate=40000 / vbv_bufsize=30000 / crf_max=0.0 / ip_ratio=1.40 / aq=1:1.00 / nal_hrd=vbr
Основные цвета : BT.709-5, BT.1361, IEC 61966-2-4, SMPTE RP177
Характеристики трансфера : BT.709-5, BT.1361
Коэффициенты матрицы : BT.709-5, BT.1361, IEC 61966-2-4 709, SMPTE RP177
Аудио #1
Идентификатор : 2
Формат : AC-3
Формат/Информация : Audio Coding 3
Расширение режима : CM (complete main)
Идентификатор кодека : A_AC3
Продолжительность : 1 ч. 25 м.
Вид битрейта : Постоянный
Битрейт : 640 Кбит/сек
Канал(ы) : 6 канала(ов)
Расположение каналов : Front: L C R, Side: L R, LFE
Частота : 48,0 КГц
Битовая глубина : 16 бит
Метод сжатия : С потерями
Размер потока : 392 Мбайт (6%)
Заголовок : Russian 5.1 Dub 3D-RuGroup
Язык : Russian
Аудио #2
Идентификатор : 3
Формат : AC-3
Формат/Информация : Audio Coding 3
Расширение режима : CM (complete main)
Идентификатор кодека : A_AC3
Продолжительность : 1 ч. 25 м.
Вид битрейта : Постоянный
Битрейт : 640 Кбит/сек
Канал(ы) : 6 канала(ов)
Расположение каналов : Front: L C R, Side: L R, LFE
Частота : 48,0 КГц
Битовая глубина : 16 бит
Метод сжатия : С потерями
Размер потока : 392 Мбайт (6%)
Заголовок : French 5.1
Язык : French
Меню
00:00:00.000 : :- 01
00:07:11.598 : :- 02
00:13:31.728 : :- 03
00:19:45.309 : :- 04
00:29:45.325 : :- 05
00:36:54.337 : :- 06
00:42:37.430 : :- 07
00:49:37.975 : :- 08
00:56:57.372 : :- 09
01:04:37.457 : :- 10
01:10:45.241 : :- 11
01:18:32.708 : :- 12
Скриншоты сравнения: http://screenshotcomparison.com/comparison/45782
Внимание! владельцам 3Д ТВ при просмотре необходимо поменять местами ракурсы!
Благодарности релизеру (34)

Торрент:

Статус:

Размер:

Зарегистрирован   [ 2012-05-06 21:28 ]

проверено

5.9 GB

 
 Мнение о фильме (18)





Спасибо! 3D вообще отличное) Мультфильм сам тоже очень красивый и интересный.
 

так себе. Сюжета нет. мульт для самых маленьких, а им 3Д еще как бы рано
 

3D изумительное, а по поводу сюжета нет и для маленьких, так он не для ДЯДЕК взлослых и делался, а для детей и они в восторге.
 

3D меня очень впечатлило,смотрел на проекторе OPTOMA HD 33,неудобно только одно ,что надо менять ракурсы местами.
 

Мульт для детей, моему ребенку понравился. Отличное 3д, практически весь фильм картинка на 1-1,5 метра вылезшая из экрана в комнату, и вылетов хватает.
 

Картинка потрясающая, но на счет сюжета... полностью согласен с vovan-san - его там нет, а жаль!
 

хороший фильм
 

3д лучшее из всего что я видел
 
сергей иванович Профиль 23-Сен-2013 14:21

понравился
 

отличное 3д
 

Cкажите мульт на весь экран или с полосами?
 

Смотрели всей семьей, все в восторге. 3Д на высоте, спасибо за раздачу!
 

круто спасибо вам что вы есть
 

Мульт классный,3 d лучшее что может быть и вылеты и глубина торчащие обьекты перед глазами
 

3D супер, яркий, сочный мультфильм, красивая картинка.
1. Интересно, что все сцены связанные с загрязнением океана в театральной версии вырезаны :)
2. ERNESTO666, мульт без черных полос 16:9
3. Согласен, что наипростейший сюжет, да и сам мультфильм для детишек, но зачем тогда в озвучке использовать слова "чувак, отвали, отстой, идиот"?!? Причем весь этот ненужный сленг как-то неестесвенно исходит от милых персонажей, что просто режет слух. Да, и полфильма напрягала навязчивая пропоганда найти себе пару, аж прямо до тошноты. Вобщем, качал для 6-летнего ребенка, в итоге посмотрели с женой, ребенку решили не показывать. PG 12+ ИМХО.
 

Качество потрясающее, однозначно любителям превосходного 3D смотреть)))) и сам мультик очень понравился
 

спасибо, будем смотреть
 

Качество потрясающее, однозначно любителям превосходного 3D смотреть)))) и сам мультик очень понравился