Торренты   
 
 


Техническая информация

В связи с тем, что в последнее время многие раздачи зафлужены не относящимися к данной теме релиза комментариями как переключить звук, почему не показывает, у меня не идет, нет звука, нет видео просьба всем участникам форума писать в данной теме, в раздачах подобное будет удалено. Комментарии к раздачам такого типа как скорости, сид ты где, это уже было, не учите меня жить и любой другой необоснованный негатив тоже будут удалены. Хорошего всем настроения.
Комментарии:

1, 2, 3 ... 14, 15, 16  След.






Давно пора чистку провести. Лишь бы не пришлось чистить эту тему)) (тьфу-тьфу-тьфу!).
Ну, первым делом, думаю надо это почистить :)
 

KinoKRITIK
Ну как раз это и с подвигло. Думаю часть той дискуссии можно выделить отдельной темой и оставить для истории.
 

Наконец то на сайте стали наводить порядок. Это здорово! Будьте взаимно вежливы.
 

100
Особого бардака у нас и не было, просто дитя растет и оно начинает кусаться.
 

В связи с тем, что в последнее время многие раздачи зафлужены не относящимися к данной теме релиза комментариями как переключить звук, почему не показывает, у меня не идет, нет звука, нет видео просьба всем участникам форума писать в данной теме,
есть проблемка-
-почему-то некоторые раздачи не открываются на встроенном плеере телевизора Samsung -не 3D(на ПК все нормально),никак не могу вычислить причину-например
открывается:
IMAX. Тайны подводного мира 3D / Deep Sea
Качество: HDRip (c BDRip by Solaris)
Формат: MKV
Видео: AVC / 1920x1080 / 23.976fps / 12 Mbps
Аудио: Русский / AC3 / 6ch / 448 Kbps / 48 KHz
Оригинальной аудио дорожки нет!
Формат 3d: Anamorph OverUnder
http://torrents3d.ru/viewtopic.php?p=9610
Алиса в стране чудес(с другого треккера)
Формат 3D
Half SideBySide / Горизонтальная анаморфная стереопара
Качество: BDRip (1080p)
Видео: MPEG-4 AVC, 8520 Кбит/с, 1920x1080, 23,976 кадр/с
Аудио: Русский (АС3, 6 ch, 640 Кбит/с), английский (DTS, 6 ch, 1536 Кбит/с)
Размер: 8.46 ГБ
IMAX. На глубине морской 3D / Under the Sea 3D
Качество: HDRip
Контейнер: MKV
Видео: AVC / 1920х1080р / 23.976 fps / 18 Mbps
Аудио: AC3 / 6 channels / 448 kbps / 48 KHz (русский) (ориг. дорожка отсутствует)
Формат 3d: Anamorph OverUnder
Не открывается:
IMAX. Приключение в Большом каньоне
Формат 3d: Anamorph OverUnder
Качество: BDRip
Контейнер: MKV
Видео: AVC / 1920х1080p / 23,976 fps / 10,1 Mbps
Аудио [rus]: AC3 / 6ch / 640 Kbps / 48 KHz
Аудио [eng]: DTS / 6 ch / 1510 kbps / 48 KHz
Субтитры [rus]: внешние srt
http://torrents3d.ru/viewtopic.php?p=14645
IMAX .Телескоп Хаббл в 3D / Hubble 3D
Видео
Идентификатор : 1
Формат : AVC
Формат/Информация : Advanced Video Codec
Профиль формата : High@L4.1
Параметр CABAC формата : Да
Параметр ReFrames формата : 2 кадры
Режим смешивания : Header stripping
Идентификатор кодека : V_MPEG4/ISO/AVC
Продолжительность : 43 м.
Вид битрейта : Переменный
Битрейт : 11,3 Мбит/сек
Максимальный битрейт : 30,0 Мбит/сек
Ширина : 1920 пикс.
Высота : 1080 пикс.
Соотношение сторон : 16:9
Частота кадров : 23,976 кадр/сек
Цветовое пространство : YUV
http://torrents3d.ru/viewtopic.php?p=18333

Рапунцель(с другого треккера)
Качество: BDRip (1080p)
Видео: MPEG-4 AVC, 6789 Кбит/сек, 1920x1080, 23.98 кадр/с
Аудио: Русский (АС3, 6 ch, 448 Кбит/с), английский (АС3, 6 ch, 448 Кбит/с)
Размер: 5.51 ГБ
Продолжительность: 01:40:16
Перевод: Дублированный
Формат 3D: Half SideBySide / Горизонтальная анаморфная стереопара
складывается впечатление,что HDrip читает,а BDrip не читает,
хотя с другого треккера читает и BDrip
 

2 uncle52
Дело точно не в HDrip-BDrip. В Каньоне возможно не нравится параметр ref=5, в Хаббле наверняка не нравятся сжатые заголовки (Режим смешивания : Header stripping), ну а насчёт Рапунцеля ничего не могу сказать, т.к. не знаю параметров рипа.
 

Здравствуйте! Подскакжите в чем может быть проблема: есть НД медиаплеер Egreat EG-M31B,к нему подключен по HDMI 1,3 3Д-телевизор Филипс. При просмотре Санктум / Sanctum (Алистер Грирсон) [2011 г., BDRip 1080p, OverUnder] и некоторых других OU пропадает звук, причем на определенных моментах и его нет пока не перемотаешь на минуту вперед (примерно). Жду подсказки где копать. Заранее спасибо
 

http://torrents3d.ru/viewtopic.php?t=1403
Собственно, как переключить звук? (с) :) При показе - оригиналный. Естно, стерескопикплеер.
 

Ансвет
Странно конечно, скопик по умолчанию всегда хватает первую дорожку, но если что http://torrents3d.ru/viewtopic.php?t=845 там описано . И на будушее учись узать FAQ
 

2 Dag13
На том релизе он именно и хватает первую дорогу, а русская идёт второй!
 

Это уже полтергейтс.

me

Аудио #1
Идентификатор : 2
Формат : AC-3
Формат/Информация : Audio Coding 3
Расширение режима : CM (complete main)
Идентификатор кодека : A_AC3
Продолжительность : 1 ч. 48 м.
Вид битрейта : Постоянный
Битрейт : 640 Кбит/сек
Канал(ы) : 6 канала(ов)
Расположение каналов : Front: L C R, Side: L R, LFE
Частота : 48,0 КГц
Битовая глубина : 16 бит
Метод сжатия : С потерями
Размер потока : 498 Мбайт (3%)
Язык : Russian
Аудио #2
Идентификатор : 3
Формат : AC-3
Формат/Информация : Audio Coding 3
Расширение режима : CM (complete main)
Идентификатор кодека : A_AC3
Продолжительность : 1 ч. 48 м.
Вид битрейта : Постоянный
Битрейт : 640 Кбит/сек
Канал(ы) : 6 канала(ов)
Расположение каналов : Front: L C R, Side: L R, LFE
Частота : 48,0 КГц
Битовая глубина : 16 бит
Метод сжатия : С потерями
Размер потока : 498 Мбайт (3%)
Язык : English
 

Мдаааа, опять моя невнимательность! :)))
Я перепутал твой релиз с релизом Анатолия! Да, в твоём релизе действительно всё в нужной последовательности! Прошу прощения! :)
 

http://torrents3d.ru/viewtopic.php?t=1388 Кто подскажет как заменить звуковую дорожку,на русский.Интересно,что другие фильмы воспроизводит ,как положено.Плеер Total Media Arcsoft.
 

Вот, о последнем упомянутом релизе я и говорил. Подозреваю, что и Ансвет тоже перепутал эти два релиза. :)
 

Dag13
Сенкс
 

http://torrents3d.ru/viewtopic.php?t=1388 Кто подскажет как заменить звуковую дорожку,на русский.Интересно,что другие фильмы воспроизводит ,как положено.Плеер Total Media Arcsoft.
Ну что,никто не поможет?
 

Здравствуйте! Подскажите в чем может быть проблема cкачал и не получается скопировать на переносной HDD Avatar. 3D bdrip. (матроска) 17.3 гб. Комп пишет, что не хватает места на переносном HDD а там ещё 850 гб. свободного места.
 

2 pecheneg
Форматируйте HDD в NTFS (у вас наверняка FAT32).
 

http://torrents3d.ru/viewtopic.php?t=1403
Санктум / Sanctum (Алистер Грирсон) [2011 г., BDRip 1080p, OverUnder]
Привет всем. Есть проблема. При просмотре в Power DVD 10 периодически картика рассыпается на квадраты, регулярные притормаживания. Например, последний кадр взлета вертолета на фоне синего неба вначале фильма.
Попытка разобраться вот к чему привела. У меня есть 1080p - эта версия, и 1080p обычная, не стерео с другого сайта. Что интересно, при просмотре PDVD10 - притормаживания в обеих записях примерно в одних местах (!!!). Если смотреть, например, KMPlayer - никаких притормаживаний на записях вообще. Грешу на кодеки, однако где их приклеивать в PDVD10 - не разобрался. Пособите.
Система:
WIN 7
Intel E8200
Gainvard GTX570
RAM 2GB
TV - Philips 46pfl9705h
 

Здравствуйте!
Подскажите, я что-то не так делаю, или что-то пропустил?
Не качаются торренты.
http://torrents3d.ru/viewtopic.php?t=1483
http://torrents3d.ru/viewtopic.php?t=1498
Сиды есть. Рейтинг у меня есть. IP белый.
Раньше все качал cTorrent - ом. Поменял на rTorrent - без результата. Сутки стоит - и ни байта.
С рутрекера все качает нормально. Отсюда неделю назад скачивал - все ОК было.
 

Страница 1 из 16

1, 2, 3 ... 14, 15, 16  След.