Торренты   
 
 

 

Зелёный Шершень / The Green Hornet [2011 г, 1080p, Anamorph OverUnder]

Рейтинг 3D:
6 голосов
7.2
Рейтинг фильма:
6 голосов
6.7
 
Вы должны быть авторизированы,
чтобы ставить оценки


Зелёный Шершень 3Д / The Green Hornet 3D

Год выпуска: 2011
Страна: США
Жанр: Боевик, Комедия, Криминал
Продолжительность: 01:58:52
Перевод: Профессиональный (полное дублирование)
Субтитры: Отдельной ссылкой внизу
Режиссер: Мишель Гондри / Michel Gondry
В ролях: Сет Роген, Джей Чоу, Кристоф Вальц, Кэмерон Диаз, Том Уилкинсон, Дэвид Харбор, Эдвард Джеймс Олмос, Джэми Харрис, Чад Коулмэн, Эдвард Ферлонг
Описание: Сын медиа-магната «прожигает» свою жизнь в вечных пьянках и бесчисленных случайных связях. Но после неожиданной смерти отца он наконец осознает бесцельность своего существования и решает все изменить. Вместе с другом они становятся супергероями, которые борются с преступностью ее же методами, совершенно не считаясь с законом…
Релиз:
Формат 3d: Anamorph OverUnder
Качество: BDRip
Контейнер: MKV
Видео: AVC / 1920х1080p / 23,976 fps / 8 076 Kbps
Аудио#1: Русский / AC3 / 6 ch / 384 Kbps / 48 KHz
Аудио#2: Английский / AC3 / 6 ch / 640 kbps / 48 KHz
Субтитры: Тут англ.полные и рус.форс. (две надписи - название фильма и "20 лет спустя") - формат srt - 50 КБ

MediaInfo

General
Complete name : F:\Downloads\GreenHornet.am.mkv
Format : Matroska
File size : 7.71 GiB
Duration : 1h 58mn
Overall bit rate : 9 285 Kbps
Encoded date : UTC 2011-04-22 08:04:48
Writing application : mkvmerge v3.4.0 ('Rapunzel') сборка от May 15 2010 09:38:20
Writing library : libebml v0.8.0 + libmatroska v0.9.0
Video
ID : 1
Format : AVC
Format/Info : Advanced Video Codec
Format profile : High@L4.1
Format settings, CABAC : Yes
Format settings, ReFrames : 4 frames
Codec ID : V_MPEG4/ISO/AVC
Duration : 1h 58mn
Bit rate : 8 076 Kbps
Width : 1 920 pixels
Height : 1 080 pixels
Display aspect ratio : 0.889
Original display aspect ratio : 16:9
Frame rate : 23.976 fps
Color space : YUV
Chroma subsampling : 4:2:0
Bit depth : 8 bits
Scan type : Progressive
Bits/(Pixel*Frame) : 0.162
Stream size : 6.71 GiB (87%)
Title : Rip by Ash61.3D-RuGroup
Writing library : x264 core 113 r1884 7313bb5
Encoding settings : cabac=1 / ref=4 / deblock=1:-1:-1 / analyse=0x3:0x113 / me=umh / subme=9 / psy=1 / psy_rd=1.00:0.15 / mixed_ref=1 / me_range=16 / chroma_me=1 / trellis=2 / 8x8dct=1 / cqm=0 / deadzone=21,11 / fast_pskip=1 / chroma_qp_offset=-3 / threads=3 / sliced_threads=0 / nr=0 / decimate=1 / interlaced=0 / constrained_intra=0 / bframes=4 / b_pyramid=2 / b_adapt=2 / b_bias=0 / direct=3 / weightb=1 / open_gop=0 / weightp=2 / keyint=250 / keyint_min=23 / scenecut=40 / intra_refresh=0 / rc_lookahead=40 / rc=crf / mbtree=1 / crf=18.0 / qcomp=0.60 / qpmin=10 / qpmax=69 / qpstep=4 / vbv_maxrate=50000 / vbv_bufsize=50000 / crf_max=0.0 / nal_hrd=none / ip_ratio=1.40 / aq=1:1.00
Audio #1
ID : 2
Format : AC-3
Format/Info : Audio Coding 3
Mode extension : CM (complete main)
Codec ID : A_AC3
Duration : 1h 58mn
Bit rate mode : Constant
Bit rate : 384 Kbps
Channel(s) : 6 channels
Channel positions : Front: L C R, Side: L R, LFE
Sampling rate : 48.0 KHz
Bit depth : 16 bits
Compression mode : Lossy
Stream size : 327 MiB (4%)
Language : Russian
Audio #2
ID : 3
Format : AC-3
Format/Info : Audio Coding 3
Mode extension : CM (complete main)
Codec ID : A_AC3
Duration : 1h 58mn
Bit rate mode : Constant
Bit rate : 640 Kbps
Channel(s) : 6 channels
Channel positions : Front: L C R, Side: L R, LFE
Sampling rate : 48.0 KHz
Bit depth : 16 bits
Compression mode : Lossy
Stream size : 544 MiB (7%)
Language : English
Menu
00:07:48.343 : en: 01
00:14:11.392 : en: 02
00:23:06.843 : en: 03
00:31:33.849 : en: 04
00:40:23.879 : en: 05
00:48:31.281 : en: 06
00:56:27.590 : en: 07
01:03:53.500 : en: 08
01:13:52.951 : en: 09
01:20:57.807 : en: 10
01:28:38.434 : en: 11
01:37:03.855 : en: 12
01:44:14.118 : en: 13
01:50:05.385 : en: 14

Скриншоты

Лог кодирования

Благодарности релизеру (12)

Торрент:

Статус:

Размер:

Зарегистрирован   [ 2011-04-22 14:16 ]

проверено

7.71 GB