Торренты   
 
 

 

Санктум / Sanctum (Алистер Грирсон) [2011 г., BDRip 1080p, Full OverUnder]

Рейтинг 3D:
96 голосов
8.1
Рейтинг фильма:
94 голосов
8.1
 
Вы должны быть авторизированы,
чтобы ставить оценки


Санктум / Sanctum
Год выпуска: 2011
Страна: США, Австралия
Жанр: боевик, триллер, драма, приключения
Продолжительность: 01:48
Перевод: Профессиональный (полное дублирование)
Режиссер: Алистер Грирсон
В ролях: Ричард Роксбург, Йоан Гриффит, Риз Уэйкфилд, Элис Паркинсон, Дэниэл Уилли, Кристофер Бэйкер, Элисон Крэтчли, Крамер Кэйн, Эндрю Хансен, Джон Гарвин
Описание: Группа дайверов предпринимает очень рискованную экспедицию в самую большую систему пещер на Земле — невероятно красивую и почти недоступную. Неожиданный тропический шторм вынуждает их спуститься глубоко в пещеры. Единственное спасение для исследователей — найти неизвестный второй выход к морю, преодолевая неистовую стихию бушующих вод, коварные ловушки подземелий и смертельный ужас…
Формат 3d: OverUnder
Видео: AVC, h264, 1920х2160, 23,976 кадр/сек, 16,9 Мбит/сек
Аудио: Rus, AC-3, 6 каналов, 640 Кбит/сек, 48,0 КГц
Аудио: Eng, AC-3, 6 каналов, 640 Кбит/сек, 48,0 КГц

Скриншоты



me

Общее
Уникальный идентификатор : 185315338848489797299585809270607945264 (0x8B6A6F9F4925AD40A119EE17ABA39E30)
Полное имя : D:\SANCTUM.mkv
Формат : Matroska
Размер файла : 14,1 Гбайт
Продолжительность : 1 ч. 48 м.
Общий поток : 18,6 Мбит/сек
Дата кодирования : UTC 2011-04-22 07:41:12
Программа кодирования : mkvmerge v3.4.0 ('Rapunzel') сборка от May 15 2010 09:38:20
Библиотека кодирования : libebml v0.8.0 + libmatroska v0.9.0
Видео
Идентификатор : 1
Формат : AVC
Формат/Информация : Advanced Video Codec
Профиль формата : High@L5.0
Параметр CABAC формата : Да
Параметр ReFrames формата : 4 кадры
Идентификатор кодека : V_MPEG4/ISO/AVC
Продолжительность : 1 ч. 48 м.
Битрейт : 16,9 Мбит/сек
Ширина : 1920 пикс.
Высота : 2160 пикс.
Соотношение сторон : 0,889
Частота кадров : 23,976 кадр/сек
Цветовое пространство : YUV
Подвыборка цветности : 4:2:0
Битовая глубина : 8 бит
Тип развёртки : Прогрессивная
Бит/(Пиксели*Кадры) : 0.170
Размер потока : 12,9 Гбайт (91%)
Библиотека кодирования : x264 core 115 r1937 aa21558
Настройки программы : cabac=1 / ref=4 / deblock=1:-1:-1 / analyse=0x3:0x113 / me=umh / subme=9 / psy=1 / psy_rd=1.00:0.00 / mixed_ref=1 / me_range=16 / chroma_me=1 / trellis=2 / 8x8dct=1 / cqm=0 / deadzone=21,11 / fast_pskip=1 / chroma_qp_offset=-3 / threads=9 / sliced_threads=0 / nr=0 / decimate=1 / interlaced=0 / bluray_compat=0 / constrained_intra=0 / bframes=6 / b_pyramid=0 / b_adapt=2 / b_bias=0 / direct=3 / weightb=1 / open_gop=0 / weightp=2 / keyint=250 / keyint_min=23 / scenecut=40 / intra_refresh=0 / rc_lookahead=40 / rc=crf / mbtree=1 / crf=20.0 / qcomp=0.60 / qpmin=0 / qpmax=69 / qpstep=4 / ip_ratio=1.40 / aq=1:1.00
Язык : English
Аудио #1
Идентификатор : 2
Формат : AC-3
Формат/Информация : Audio Coding 3
Расширение режима : CM (complete main)
Идентификатор кодека : A_AC3
Продолжительность : 1 ч. 48 м.
Вид битрейта : Постоянный
Битрейт : 640 Кбит/сек
Канал(ы) : 6 канала(ов)
Расположение каналов : Front: L C R, Side: L R, LFE
Частота : 48,0 КГц
Битовая глубина : 16 бит
Метод сжатия : С потерями
Размер потока : 498 Мбайт (3%)
Язык : Russian
Аудио #2
Идентификатор : 3
Формат : AC-3
Формат/Информация : Audio Coding 3
Расширение режима : CM (complete main)
Идентификатор кодека : A_AC3
Продолжительность : 1 ч. 48 м.
Вид битрейта : Постоянный
Битрейт : 640 Кбит/сек
Канал(ы) : 6 канала(ов)
Расположение каналов : Front: L C R, Side: L R, LFE
Частота : 48,0 КГц
Битовая глубина : 16 бит
Метод сжатия : С потерями
Размер потока : 498 Мбайт (3%)
Язык : English
Скриншоты сравнения http://screenshotcomparison.com/comparison/45747
Остальные раздачи этого фильма (4)
Благодарности релизеру (11)

Торрент:

Статус:

Размер:

Зарегистрирован   [ 2011-04-22 19:24 ]

проверено

14.11 GB

 
 Мнение о фильме (37)

Пред.  1, 2






Фильм понравился, интересный сюжет, держал в напряжениии)) На счет 3д, то смотрелось легко и красочно))) особых объемов я не увидела, но это не испортило фильм нисколечки))
 

cool!!!
 

сюжет не очень а снят отлично, не люблю паникеров.
 

Отличный фильм. Спасибо.
 

Третий раз смотрю, и по-прежнему нравится)) Спасибо!
 

Супер, здорово.
 

За раздачу респект, а вот фильм нуторный, не зацепил, удаляю.
 

Спасибо!!!! фильм хороший 3д норма.
 

Отличное 3D! Конечно чувствуется разница, когда снято специальным оборудованием для 3D, а не просто конвертация обычного видео.
 

Ну уж нет! Если с "парком юрского периода" сравнивать, 3D никакое! Фильм - Лажа!
 

Leyla26rus ты гонишь конкретно! Фильм шикарный!!! Ты с пальмы что ли раньше фильмы смотрел? Такой фильм классный отзывом своим дерьмовым опустил. И не лень писать было!
 

Фильм порадовал, спасибо!
 
Вячеслав1976 Профиль 23-Дек-2013 04:30

ash61, Спасибо,всё как обычно без сучков,и 3Д хорошее,и озвучка сразу наша. Когда-то смотрел в 2Д,поэтому только сейчас решил еще разок. Хороший фильм,хоть и тяжёлый,однако поучительный.В 3Д таких мало.
 

хороший фильм но можно и в 2д смотреть эфектов нет.
 

Спасибо за фильм !
 

Чето я не понимаю, а почему без перевода?
 

фильм с полосами или полный экран?
 

Страница 2 из 2

Пред.  1, 2