Торренты   
 
 

 

Шевели ластами! (полная версия) в 3Д / Sammy's avonturen: De geheime doorgang in 3D (Бен Стассен / Ben Stassen) [2010 г., 1080p, OverUnder]

Рейтинг 3D:
8 голосов
9.2
Рейтинг фильма:
8 голосов
9.5
 
Вы должны быть авторизированы,
чтобы ставить оценки


Шевели ластами! (полная версия) в 3Д / Sammy's avonturen: De geheime doorgang in 3D
Год выпуска: 2010
Страна: Бельгия
Жанр: приключения, мультфильм
Продолжительность: 01:25:35
Перевод: Профессиональный дублированный (с лицензии)
+ многоголосый закадровый (3D-RuGroup) в добавленых сценах.
Субтитры: отсутствуют
Режиссер: Бен Стассен / Ben Stassen
Роли озвучивали: Мелани Гриффит, Изабелль Фюрман, Юрий Ловенталь, Энтони Андерсон, Сидни Хоуп Баннер, Эд Бегли мл., Даррен Капоцци, Пэт Кэрролл, Крис Эндрю Кулла, Тим Карри
Описание: Для маленькой черепашки подводный мир — самое безопасное место. Здесь акулы, пираньи, змеи, а на берегу поджидают люди. И наш маленький Сэмми хочет узнать весь мир, от полярных льдов до субтропиков. Путешествие продлится ровно полвека, начиная с 1959 года, за это время даже климат успеет измениться.Релиз группы:
Качество: BDRip
Формат: MKV
Формат 3d: OverUnder / Вертикальная стереопара
Порядок ракурсов: Правый ракурс верхний.
Видео кодек: x264
Аудио кодек: АС-3
Видео: MPEG4 Video (H264) 1920x2160 23.98fps 18,0 Мбит/сек
Аудио: Russian AC-3 48000Hz 6ch 640 kbps 16 бит
Аудио 2: French AC-3 48000Hz 6ch 640 kbps 16 бит
Субтитры: Нет-

Скриншоты



Медиа инфо

Общее
Уникальный идентификатор : 248632024960419160254727988599517122385 (0xBB0CC9446F732FFAA807AB2BEEF88F51)
Полное имя : Sammy's.Avonturen.2010.BD3DRip.AVC.1080p_OU.Rus.Fra.3D-RuGroup.mkv
Формат : Matroska
Размер файла : 11,8 Гбайт
Продолжительность : 1 ч. 25 м.
Общий поток : 19,7 Мбит/сек
Дата кодирования : UTC 2011-04-21 16:45:19
Программа кодирования : mkvmerge v3.4.0 ('Rapunzel') сборка от May 15 2010 09:38:20
Библиотека кодирования : libebml v0.8.0 + libmatroska v0.9.0
Видео
Идентификатор : 1
Формат : AVC
Формат/Информация : Advanced Video Codec
Профиль формата : High@L5.0
Параметр CABAC формата : Да
Параметр ReFrames формата : 4 кадры
Идентификатор кодека : V_MPEG4/ISO/AVC
Продолжительность : 1 ч. 25 м.
Битрейт : 18,0 Мбит/сек
Ширина : 1920 пикс.
Высота : 2160 пикс.
Соотношение сторон : 0,889
Частота кадров : 23,976 кадр/сек
Цветовое пространство : YUV
Подвыборка цветности : 4:2:0
Битовая глубина : 8 бит
Тип развёртки : Прогрессивная
Бит/(Пиксели*Кадры) : 0.181
Размер потока : 10,8 Гбайт (92%)
Заголовок : Sammy's.Avonturen.2010.BD3DRip.AVC.1080p_OU.3D-RuGroup
Библиотека кодирования : x264 core 114 r1924 08d04a4
Настройки программы : cabac=1 / ref=4 / deblock=1:-3:-3 / analyse=0x3:0x133 / me=umh / subme=10 / psy=1 / psy_rd=1.00:0.05 / mixed_ref=1 / me_range=32 / chroma_me=1 / trellis=2 / 8x8dct=1 / cqm=0 / deadzone=21,11 / fast_pskip=0 / chroma_qp_offset=-3 / threads=6 / sliced_threads=0 / nr=0 / decimate=1 / interlaced=0 / constrained_intra=0 / bframes=5 / b_pyramid=2 / b_adapt=2 / b_bias=0 / direct=3 / weightb=1 / open_gop=0 / weightp=2 / keyint=250 / keyint_min=23 / scenecut=40 / intra_refresh=0 / rc_lookahead=60 / rc=crf / mbtree=1 / crf=16.4 / qcomp=0.70 / qpmin=0 / qpmax=51 / qpstep=4 / ip_ratio=1.40 / aq=1:0.80
Аудио #1
Идентификатор : 2
Формат : AC-3
Формат/Информация : Audio Coding 3
Расширение режима : CM (complete main)
Идентификатор кодека : A_AC3
Продолжительность : 1 ч. 25 м.
Вид битрейта : Постоянный
Битрейт : 640 Кбит/сек
Канал(ы) : 6 канала(ов)
Расположение каналов : Front: L C R, Side: L R, LFE
Частота : 48,0 КГц
Битовая глубина : 16 бит
Метод сжатия : С потерями
Размер потока : 392 Мбайт (3%)
Заголовок : Russian 5.1 Dub 3D-RuGroup
Язык : Russian
Аудио #2
Идентификатор : 3
Формат : AC-3
Формат/Информация : Audio Coding 3
Расширение режима : CM (complete main)
Идентификатор кодека : A_AC3
Продолжительность : 1 ч. 25 м.
Вид битрейта : Постоянный
Битрейт : 640 Кбит/сек
Канал(ы) : 6 канала(ов)
Расположение каналов : Front: L C R, Side: L R, LFE
Частота : 48,0 КГц
Битовая глубина : 16 бит
Метод сжатия : С потерями
Размер потока : 392 Мбайт (3%)
Заголовок : French 5.1
Язык : French
Меню
00:00:00.000 : :- 01
00:07:11.598 : :- 02
00:13:31.728 : :- 03
00:19:45.309 : :- 04
00:29:45.325 : :- 05
00:36:54.337 : :- 06
00:42:37.430 : :- 07
00:49:37.975 : :- 08
00:56:57.372 : :- 09
01:04:37.457 : :- 10
01:10:45.241 : :- 11
01:18:32.708 : :- 12
Лучшее "спасибо" - скачать сэмпл... Скриншоты сравнения: http://screenshotcomparison.com/comparison/45777
Внимание! Просмотр рекомендован в Стереоскопик плейере и последними версиями кодеков: Haali Media Splitter x32, ffdshow Video Decoder x32 !
Благодарности релизеру (1)

Торрент:

Статус:

Размер:

Зарегистрирован   [ 2012-05-06 21:23 ]

проверено

11.76 GB

 
 Мнение о фильме (2)





Фильм хорош и 3D на высоте.... Смотреть всем....
 

Пожалуйста, поделитесь