Торренты   
 
 

 

Акустические Вариации / Goldberg Variations Acoustica [2010 г., 720p, Anamorph OverUnder]

Рейтинг 3D:
2 голосов
8.5
Рейтинг фильма:
2 голосов
8.5
 
Вы должны быть авторизированы,
чтобы ставить оценки


Акустические Вариации / Goldberg Variations Acoustica
Год выпуска: 2010
Страна: США
Жанр: Музыка, Акустический концерт
Продолжительность: 0:52:59
Перевод: Не требуется-Композитор: Иоган Себастьян Бах / Johan Sebastian Bach
Acoustica Concept: Mark Waldrep
Арранжировка: Jim Cox
Исполнители: The AIX All Star Band:
Jim Cox - piano
Dean Parks - electric guitar
Laurence Juber - acoustic bass
Alberto Lopez - percussion
Kevin Axt - acoustic bass
MB Gordy - drumsРелиз группы:
Качество: BDRip
Формат: MKV
Формат 3d: Anamorph OverUnder / Вертикальная анаморфная стереопара
Порядок ракурсов: Левый ракурс верхний.
Видео кодек: x264
Аудио кодек: АС-3
Видео: MPEG4 Video (H264) 1280x720 59,94 fps 6868 Кбит/сек
Аудио: AC-3 48000Hz 6ch 640 kbps 16 бит-

Скриншоты



Медиа инфо

Общее
Уникальный идентификатор : 239511857575917988274385279205153786774 (0xB4304E4C74C15D1B9249C36ABA114B96)
Полное имя : Goldberg.Variations.Acoustica.2010.BD3DRip.AVC.720p.Half_OU.En.3D-RuGroup.mkv
Формат : Matroska
Размер файла : 2,84 Гбайт
Продолжительность : 52 м.
Общий поток : 7661 Кбит/сек
Дата кодирования : UTC 2011-04-23 15:31:17
Программа кодирования : mkvmerge v3.4.0 ('Rapunzel') сборка от May 15 2010 09:38:20
Библиотека кодирования : libebml v0.8.0 + libmatroska v0.9.0
Видео
Идентификатор : 1
Формат : AVC
Формат/Информация : Advanced Video Codec
Профиль формата : High@L3.1
Параметр CABAC формата : Да
Параметр ReFrames формата : 4 кадры
Идентификатор кодека : V_MPEG4/ISO/AVC
Продолжительность : 52 м.
Битрейт : 6868 Кбит/сек
Ширина : 1280 пикс.
Высота : 720 пикс.
Соотношение сторон : 0,889
Соотношение сторон в оригинале : 16:9
Частота кадров : 59,940 кадр/сек
Частота кадров в оригинале : 23,976 кадр/сек
Цветовое пространство : YUV
Подвыборка цветности : 4:2:0
Битовая глубина : 8 бит
Тип развёртки : Прогрессивная
Бит/(Пиксели*Кадры) : 0.124
Размер потока : 2,54 Гбайт (90%)
Заголовок : Goldberg.Variations.Acoustica.2010.BD3DRip.AVC.720p.Half_OU.En.3D-RuGroup
Библиотека кодирования : x264 core 114 r1924 08d04a4
Настройки программы : cabac=1 / ref=4 / deblock=1:-3:-3 / analyse=0x3:0x133 / me=umh / subme=8 / psy=1 / psy_rd=1.00:0.10 / mixed_ref=1 / me_range=16 / chroma_me=1 / trellis=2 / 8x8dct=1 / cqm=0 / deadzone=21,11 / fast_pskip=0 / chroma_qp_offset=-3 / threads=6 / sliced_threads=0 / nr=0 / decimate=1 / interlaced=0 / constrained_intra=0 / bframes=5 / b_pyramid=2 / b_adapt=2 / b_bias=0 / direct=3 / weightb=1 / open_gop=0 / weightp=2 / keyint=250 / keyint_min=23 / scenecut=40 / intra_refresh=0 / rc_lookahead=30 / rc=crf / mbtree=1 / crf=18.0 / qcomp=0.70 / qpmin=0 / qpmax=69 / qpstep=4 / ip_ratio=1.40 / aq=1:0.90
Язык : English
Аудио
Идентификатор : 2
Формат : AC-3
Формат/Информация : Audio Coding 3
Расширение режима : CM (complete main)
Идентификатор кодека : A_AC3
Продолжительность : 52 м.
Вид битрейта : Постоянный
Битрейт : 640 Кбит/сек
Канал(ы) : 6 канала(ов)
Расположение каналов : Front: L C R, Side: L R, LFE
Частота : 48,0 КГц
Битовая глубина : 16 бит
Метод сжатия : С потерями
Размер потока : 243 Мбайт (8%)
Заголовок : "Stage" Mix (AC-3, 5.1 ch)
Язык : English
Меню
00:00:00.000 : :01
00:00:18.218 : :02
00:05:04.304 : :03
00:08:23.103 : :04
00:11:10.186 : :05
00:15:13.312 : :06
00:22:52.338 : :07
00:27:04.957 : :08
00:29:25.264 : :09
00:31:21.213 : :10
00:33:20.015 : :11
00:35:25.040 : :12
00:37:57.192 : :13
00:45:14.245 : :14
00:47:18.119 : :15
00:49:11.148 : :16
00:51:04.194 : :17
00:52:25.192 : :18
Благодарности релизеру (7)

Торрент:

Статус:

Размер:

Зарегистрирован   [ 2012-05-06 21:33 ]

проверено

2.84 GB

 
 Мнение о фильме (1)





молодцы ребята, все отлично отыграли!!! релизеру спасибо