Торренты   
 
 

 

Ледниковый период 3: Эра динозавров / Ice Age: Dawn of the Dinosaurs [2009 г, 1080p, Anamorph OverUnder]

Рейтинг 3D:
12 голосов
8.2
Рейтинг фильма:
10 голосов
9.3
 
Вы должны быть авторизированы,
чтобы ставить оценки


Ледниковый период 3: Эра динозавров / Ice Age: Dawn of the Dinosaurs

Год выпуска: 2009
Страна: США
Жанр: Мультфильм, Комедия, Приключения, Семейный
Продолжительность: 01:34:00
Перевод: Профессиональный (полное дублирование)
Субтитры: Русские, Английские, Русские (комментарии создателей фильма)
Режиссер: Карлос Салдана (Carlos Saldanha), Майк Трумейер (Mike Thurmeier)
Роли озвучивали:
Manny - Степан Старчиков (Ray Romano)
Sid - Антон Комолов (John Leguizamo)
Buck - Вадим Галыгин (Simon Pegg)
Ellie - Ольга Шелест (Queen Latifah)
Crash - Андрей Бархударов (Seann William Scott)
Eddie - Илья Бледный (Josh Peck)
Diego - Александр Груздев (Denis Leary)
...
Описание: К событиям «Ледникового периода 3» жизнь главных героев мультфильма претерпела некоторые изменения. Мамонты Манфред и Элли ожидают появление на свет своего детёныша; саблезубый тигр Диего впал в раздумье о том, не стал ли он слишком «мягкотелым» в компании своих друзей; ленивец Сид, брЕдя желанием создать собственное племя, решился украсть несколько яиц динозавра. Отправившись спасать Сида, друзья попадают в таинственный растительный мир, скрытый под толщами льда, где они сталкиваются с динозаврами и агрессивной окружающей средой, а так же знакомятся с охотником на динозавров — лаской по имени Бак.
Крысобелка Скрэт (который вновь случайным образом стал виной глобальной проблемы, открыв путь в мир динозавров) по-прежнему гоняется за своим орехом, но на этот раз у него появился конкурент — крысобелка Скрэтти, однако, одновременно с одержимой борьбой за орех, эти двое влюбляются друг в друга.
Релиз:
Формат 3d: Anamorph OverUnder
Качество: BDRip
Контейнер: MKV
Видео: AVC / 1920х1080p / 23,976 fps / 6 922 Kbps
Аудио#1: Русский / AC3 / 6 ch / 640 Kbps / 48 KHz
Аудио#2: Английский / AC3 / 6 ch / 640 kbps / 48 KHz
Субтитры: внешние srt

MediaInfo

General
Complete name : F:\Downloads\IceAge.am\IceAge.am.mkv
Format : Matroska
File size : 5.50 GiB
Duration : 1h 34mn
Overall bit rate : 8 369 Kbps
Encoded date : UTC 2011-04-23 12:49:26
Writing application : mkvmerge v3.4.0 ('Rapunzel') сборка от May 15 2010 09:38:20
Writing library : libebml v0.8.0 + libmatroska v0.9.0
Video
ID : 1
Format : AVC
Format/Info : Advanced Video Codec
Format profile : High@L4.1
Format settings, CABAC : Yes
Format settings, ReFrames : 4 frames
Codec ID : V_MPEG4/ISO/AVC
Duration : 1h 34mn
Bit rate : 6 922 Kbps
Width : 1 920 pixels
Height : 1 080 pixels
Display aspect ratio : 0.889
Original display aspect ratio : 16:9
Frame rate : 23.976 fps
Original frame rate : 25.000 fps
Color space : YUV
Chroma subsampling : 4:2:0
Bit depth : 8 bits
Scan type : Progressive
Bits/(Pixel*Frame) : 0.139
Stream size : 4.55 GiB (83%)
Title : Rip by Ash61.3D-RuGroup
Writing library : x264 core 113 r1884 7313bb5
Encoding settings : cabac=1 / ref=4 / deblock=1:-1:-1 / analyse=0x3:0x113 / me=umh / subme=9 / psy=1 / psy_rd=1.00:0.15 / mixed_ref=1 / me_range=16 / chroma_me=1 / trellis=2 / 8x8dct=1 / cqm=0 / deadzone=21,11 / fast_pskip=1 / chroma_qp_offset=-3 / threads=3 / sliced_threads=0 / nr=0 / decimate=1 / interlaced=0 / constrained_intra=0 / bframes=4 / b_pyramid=2 / b_adapt=2 / b_bias=0 / direct=3 / weightb=1 / open_gop=0 / weightp=2 / keyint=250 / keyint_min=25 / scenecut=40 / intra_refresh=0 / rc_lookahead=40 / rc=crf / mbtree=1 / crf=19.0 / qcomp=0.60 / qpmin=10 / qpmax=69 / qpstep=4 / vbv_maxrate=50000 / vbv_bufsize=50000 / crf_max=0.0 / nal_hrd=none / ip_ratio=1.40 / aq=1:1.00
Audio #1
ID : 2
Format : AC-3
Format/Info : Audio Coding 3
Mode extension : CM (complete main)
Codec ID : A_AC3
Duration : 1h 34mn
Bit rate mode : Constant
Bit rate : 640 Kbps
Channel(s) : 6 channels
Channel positions : Front: L C R, Side: L R, LFE
Sampling rate : 48.0 KHz
Bit depth : 16 bits
Compression mode : Lossy
Stream size : 430 MiB (8%)
Language : Russian
Audio #2
ID : 3
Format : AC-3
Format/Info : Audio Coding 3
Mode extension : CM (complete main)
Codec ID : A_AC3
Duration : 1h 34mn
Bit rate mode : Constant
Bit rate : 640 Kbps
Channel(s) : 6 channels
Channel positions : Front: L C R, Side: L R, LFE
Sampling rate : 48.0 KHz
Bit depth : 16 bits
Compression mode : Lossy
Stream size : 430 MiB (8%)
Language : English
Menu
00:00:00.000 : en: 01
00:03:09.815 : en: 02
00:10:37.846 : en: 03
00:16:04.630 : en: 04
00:19:59.448 : en: 05
00:24:06.654 : en: 06
00:27:28.647 : en: 07
00:31:46.571 : en: 08
00:36:09.667 : en: 09
00:41:10.593 : en: 10
00:48:28.072 : en: 11
00:50:45.334 : en: 12
00:57:02.002 : en: 13
00:58:05.148 : en: 14
01:03:10.286 : en: 15
01:08:04.038 : en: 16
01:11:36.042 : en: 17
01:15:59.305 : en: 18
01:21:04.067 : en: 19
01:26:49.120 : en: 20

Скриншоты

Лог кодирования

Благодарности релизеру (31)

Торрент:

Статус:

Размер:

Зарегистрирован   [ 2011-04-23 21:39 ]

проверено

5.5 GB

 
 Мнение о фильме (2)





Мульт отличный. Субтитры можно добавить в основной файл самостоятельно с помощью MKVmerge.
 

хороший красочный мультфильм и 3D вполне неплохое