Торренты   
 
 


Натали 3Д / Natali 3D (Чжу Кьон-чжун / Kyung-Jung Ju) [2010 г., Anamorph SideBySide]

Рейтинг 3D:
Пока никто не голосовал
Рейтинг фильма:
Пока никто не голосовал
 
Вы должны быть авторизированы,
чтобы ставить оценки


Натали 3Д / Natali 3D
Год выпуска: 2010
Страна: Южная Корея
Жанр: эротика, мелодрама
Продолжительность: 01:29:47
Перевод: Любительский (одноголосый)
Режиссер: Чжу Кьон-чжун / Kyung-Jung Ju
В ролях: Ли Сунг Чжа / Lee Seong-jae, Ким Чжи Хун / Kim Ji-hoon-I, Ким Ки Ён / Kim Gi-yeon-I и др.
Описание: Молодой профессор, преподающий теорию искусства в университете страстно увлекается одной из своих молодых студенток. Он создает одну из своих лучших работ, которой дает имя Натали. С течением времени их бурный роман заканчивается тем, что девушка уходит сказав, что вернется к художнику через десять лет для того, чтобы сравнить себя со скульптурой, моделью которой она послужила.
Формат 3d: Anamorph SideBySide
Видео: AVC, h264, 1920х720, 23,976 кадр/сек, 5.0 Мбит/сек
Аудио: Rus, AC-3, 6 каналов, 448 Кбит/сек, 48,0 КГц

MediaInfo

Общее
Уникальный идентификатор : 224019573531137181340057185697021541748 (0xA88899B9020A141EA238CC26FE23BD74)
Полное имя : G:\3D_Films\Natali.3D.720p.BDrip.mkv
Формат : Matroska
Размер файла : 3,35 Гбайт
Продолжительность : 1 ч. 29 м.
Общий поток : 5350 Кбит/сек
Дата кодирования : UTC 2011-04-24 06:41:11
Программа кодирования : mkvmerge v4.7.0 ('Just Like You Imagined') сборка от Apr 21 2011 01:13:14
Библиотека кодирования : libebml v1.2.0 + libmatroska v1.1.0
Видео
Идентификатор : 1
Формат : AVC
Формат/Информация : Advanced Video Codec
Профиль формата : Baseline@L4.0
Параметр CABAC формата : Нет
Параметр ReFrames формата : 2 кадра
Параметры GOP формата : M=1, N=50
Режим смешивания : Header stripping
Идентификатор кодека : V_MPEG4/ISO/AVC
Продолжительность : 1 ч. 29 м.
Битрейт : 4795 Кбит/сек
Ширина : 1920 пикс.
Высота : 720 пикс.
Соотношение сторон : 16:9
Частота кадров : 23,976 кадр/сек
Стандарт вещания : NTSC
Цветовое пространство : YUV
Подвыборка цветности : 4:2:0
Битовая глубина : 8 бит
Тип развёртки : Прогрессивная
Бит/(Пиксели*Кадры) : 0.145
Размер потока : 3,01 Гбайт (90%)
Основные цвета : BT.601-6 525, BT.1358 525, BT.1700 NTSC, SMPTE 170M
Характеристики трансфера : BT.601-6 525, BT.601-6 625, BT.1358 525, BT.1358 625, BT.1700 NTSC, SMPTE 170M
Коэффициенты матрицы : BT.601-6 525, BT.1358 525, BT.1700 NTSC, SMPTE 170M
Аудио
Идентификатор : 2
Формат : AC-3
Формат/Информация : Audio Coding 3
Расширение режима : CM (complete main)
Режим смешивания : Header stripping
Идентификатор кодека : A_AC3
Продолжительность : 1 ч. 29 м.
Вид битрейта : Постоянный
Битрейт : 448 Кбит/сек
Каналы : 6 каналов
Расположение каналов : Front: L C R, Side: L R, LFE
Частота : 48,0 КГц
Битовая глубина : 16 бит
Метод сжатия : С потерями
Размер потока : 288 Мбайт (8%)
Язык : Russian

Скриншоты