Торренты   
 
 


Штука / The Grand / Loooser (Зак Пенн / Zak Penn) [2010 г., Anamorph OverUnder]

Штука / The Grand / Loooser
Год выпуска: 2007
Страна: США
Жанр: комедия
Продолжительность: 1:44:20
Перевод: Любительский (двухголосый)
Субтитры: отсутствуют-Режиссер: Зак Пенн / Zak Penn
В ролях: Вуди Харрельсон, Дэвид Кросс, Деннис Фарина, Шерил Хайнс, Ричард Кайнд, Крис Парнелл, Вернер Херцог, Джейсон Александр, Рэй Романо, Майк Еппс, Джуди Грир, Гейб Каплан, Michael Karnow, Майкл МакКин, Джули Клер, Бэрри Корбин, Шеннон Элизабет, Эстелль Харрис, Эндрю Хилл Ньюман, Андреа Сэвадж, Фил Гордон, Роберт Томпсон, Doyle Brunson, Antonio Esfandiari, Фил Хелльмут мл., Phil Laak, Даниэль Негреану, Хэнк Азария, Том Ходжис, Дэвид Прессман, Бретт Рэтнер, Ави Арад, К.Д. Обер, Том ’Тайни’ Листер мл., Лэнс Стоктон, Tim Mikulecky, Трула М. Маркус, Cynthia Petrello, Линда Баттон, Расти Мейерс, Питер О’Мира, Тара Дж. Уайз, Catherine Rose Young, Алек Холден, Хейли МакКанн, Орли Шэйни, Naomi Fabe, Эррол Гидри II, Джефф Боулер, Шарон Фэнн, Marc Chaiet, Garrett McKechnee, Тильман Дж. Фертитта, Munchkin the Rabbit, Харви Бланк, Эшли Боулер, Бэрри Брандт, Пол Эдни, Джон Эмери, Шон Патрик Флаэрти, Стив Грабовски, Элистер Херц, Kelly R. Kleinman, Мелинда Крамер, Райли Дж. Мэтьюз мл., Wes Ockerson, Боб Пеппер, Майкл А. Рицца, Брам Тейлор, Dave Yekell-Описание: Псевдодокументальная комедия о покерном турнире, где все участвующие актеры могли свободно импровизировать за игровым столом. Шесть игроков, шесть разных судеб, госпожа Удача и стол, покрытый зеленым сукном. Леди и джентльмены, ставки сделаны!-Качество: BDRip
Формат: MKV
Формат 3d: Half OverUnder / Вертикальная анаморфная стереопара
Порядок ракурсов: Левый ракурс верхний.
Видео кодек: x264
Аудио кодек: АС-3
Видео: MPEG4 Video (H264) 1920x1080 23.98fps 9729 Кбит/сек
Аудио: Russian AC-3 48000Hz 6ch 448 kbps 16 бит
Аудио 2: English AC-3 48000Hz 6ch 640 kbps 16 бит
Субтитры: Нет-

Скриншоты



Медиа инфо

Общее
Уникальный идентификатор : 245109486992469826450278823765153012644 (0xB8665EBC981D8F63B317709BB7E9DBA4)
Полное имя : Loooser.half.mkv
Формат : Matroska
Размер файла : 8,04 Гбайт
Продолжительность : 1 ч. 44 м.
Общий поток : 11,0 Мбит/сек
Название фильма : The.Grand.2007
Дата кодирования : UTC 2011-04-25 14:16:53
Программа кодирования : mkvmerge v3.4.0 ('Rapunzel') сборка от May 15 2010 09:38:20
Библиотека кодирования : libebml v0.8.0 + libmatroska v0.9.0
Видео
Идентификатор : 1
Формат : AVC
Формат/Информация : Advanced Video Codec
Профиль формата : High@L4.0
Параметр CABAC формата : Да
Параметр ReFrames формата : 4 кадры
Идентификатор кодека : V_MPEG4/ISO/AVC
Продолжительность : 1 ч. 44 м.
Битрейт : 9729 Кбит/сек
Ширина : 1920 пикс.
Высота : 1080 пикс.
Соотношение сторон : 0,889
Соотношение сторон в оригинале : 16:9
Частота кадров : 23,976 кадр/сек
Цветовое пространство : YUV
Подвыборка цветности : 4:2:0
Битовая глубина : 8 бит
Тип развёртки : Прогрессивная
Бит/(Пиксели*Кадры) : 0.196
Размер потока : 7,09 Гбайт (88%)
Заголовок : TopGun
Библиотека кодирования : x264 core 114 r1924 08d04a4
Настройки программы : cabac=1 / ref=4 / deblock=1:-3:-3 / analyse=0x3:0x133 / me=umh / subme=8 / psy=1 / psy_rd=1.00:0.10 / mixed_ref=1 / me_range=16 / chroma_me=1 / trellis=2 / 8x8dct=1 / cqm=0 / deadzone=21,11 / fast_pskip=0 / chroma_qp_offset=-3 / threads=6 / sliced_threads=0 / nr=0 / decimate=1 / interlaced=0 / constrained_intra=0 / bframes=5 / b_pyramid=2 / b_adapt=2 / b_bias=0 / direct=3 / weightb=1 / open_gop=0 / weightp=2 / keyint=250 / keyint_min=23 / scenecut=40 / intra_refresh=0 / rc_lookahead=30 / rc=crf / mbtree=1 / crf=18.0 / qcomp=0.70 / qpmin=0 / qpmax=69 / qpstep=4 / ip_ratio=1.40 / aq=1:0.90
Аудио #1
Идентификатор : 2
Формат : AC-3
Формат/Информация : Audio Coding 3
Расширение режима : CM (complete main)
Идентификатор кодека : A_AC3
Продолжительность : 1 ч. 44 м.
Вид битрейта : Постоянный
Битрейт : 448 Кбит/сек
Канал(ы) : 6 канала(ов)
Расположение каналов : Front: L C R, Side: L R, LFE
Частота : 48,0 КГц
Битовая глубина : 16 бит
Метод сжатия : С потерями
Размер потока : 334 Мбайт (4%)
Заголовок : любительский двухголосый
Язык : Russian
Аудио #2
Идентификатор : 3
Формат : AC-3
Формат/Информация : Audio Coding 3
Расширение режима : CM (complete main)
Идентификатор кодека : A_AC3
Продолжительность : 1 ч. 44 м.
Вид битрейта : Постоянный
Битрейт : 640 Кбит/сек
Канал(ы) : 6 канала(ов)
Расположение каналов : Front: L C R, Side: L R, LFE
Частота : 48,0 КГц
Битовая глубина : 16 бит
Метод сжатия : С потерями
Размер потока : 478 Мбайт (6%)
Заголовок : Eng AC-3
Язык : English
Меню
00:00:00.000 : :01
00:07:47.175 : :02
00:16:31.490 : :03
00:26:15.532 : :04
00:35:35.967 : :05
00:44:04.976 : :06
00:52:07.333 : :07
01:01:48.663 : :08
01:11:56.187 : :09
01:19:30.349 : :10
01:28:12.245 : :11
01:36:26.698 : :12
Внимание! Русская дорога взята с этого ремукса: http://rutracker.org/forum/viewtopic.php?t=3513110 .
В русской звуковой дорожке присутствует рассинхрон в озвучке женским голосом!
Loooser.half.mkv.torrent
Торрент: Не зарегистрирован

Скачать

40 KB

Добавлен: 2011-04-25 18:31
Скачано: 2943 раз  [ Список скачавших ]
   
Комментарии:

1, 2  След.






Thanx, Андрей! Отведаем...
 

Левый ракурс верхний... верхний ракурс первый? :-)
 

Блин... жалко опять тут стерео ПСЕВДО :( Скачал скрины в SPM, открыл в 3D Vision ... мдаа... думал сперва что ракурсы перепутал, НО как очки не повернёшь - мозги небекрень :s Видно даже, что при конвертации вроде старались, некоторые обьекты индивидуально отрабатывали - но всё это не то :с
 

kashmarikss
Не вижу разицы!
 

wlad68
Фильм 2007 года. Снимался в 2Д. Объясните плиз как из 2д сделать реальное 3Д.
Наверное я чего-то не понимаю?
Может просветите...
 

Кстати фильм на честную бэд медальку тянет.
 

TopGun
Тут есть ролик Властелина кольца в 3д, вот там человек потрясно это сделал :)
 

bdwind
то не человек, то студия делала.
 

KinoKRITIK
Человек студия.
 

Кстати фильм на честную бэд медальку тянет.
Приятно что автор сам напросился на бэд медальку:) а не как некоторые релизеры на свой счет принимают, обижаются. Конечно поставим. Жаль что очередной конвертат.
Псевдодокументальная комедия
Псевдодокументальная псевдостерео псевдокомедия от псевдокинематографов:)
Человек студия.
Больше человек:) Вроде он один делал, а то что куча программ использовал, студией любой может ПК назвать. Властелин неплохо, вот так бы голливуд делал. Но всё равно видны накладки 2Д-3Д, на вроде лоб не на месте или прическа.
 

Это уже мелочи, главное что в целом смотрится ужасно круто...
 

Вроде он один делал
Ну а я точно знаю, кто делал, потому что лично спрашивал перед рассмотрением одного совместного проекта. Не буду говорить какого. :) Сейчас ему очень нужны люди, отлично разбирающиеся в 3д-редакторах (3dsmax, например), для работы на студии, которую он тоже не один организовал. Так что, если кто хочет помочь, обращайтесь либо сразу к нему, либо ко мне - перенаправлю.
 

этот диск клепала немецкая студия только для немцев, также она уже выпустила более десятка аналогичных фильмов.... все фильмы либо документалки, либо b-movie. Видимо их прокатные лицензии самые дешевые и окупаются довольно быстро после добавления надписи "3Д".
короче, это тупое самопальное псевдо3д.. картинка натянута на вогнутый экран по принципу: ниже = ближе
 

тогда надо раздачу в архив
 

Быстро немцы сообразили, переняли у нас выпуск лицензионных фейков. Правда превзошли наших по наглости, наши хоть на ДВД анаглиф а эти 3ДБД плюс куча наклеек с очками. Ну конечно фейк, откуда ему взяться если в списках 3Д фильмов нет, а фейки обычно делают из малоизвестных или низко бюджетных фильмов чтоб не прогуглили.
 

Быстро немцы сообразили
Эта студия клепает эти диски с прошлого лета... Яж говорю, что уже минимум десяток наклепали. Просто их никто не додумывался еще тут выклдывать до сих пор.
 

Я "оттуда" скачивал для пробы несколько таких рипов. После проверки - сразу же в корзину (вернее мимо). Зачем грузить пользователей дерьмом!
За такое (в т.ч.) я и ругаю тот трекер - при их жёстких условиях качаешь кота в мешке!
 

Нет, нам такое 3Д не нужно!!! Однозначно в унитаз!
Даже на обложке написано: "Loooser 3D".
 

фейк! в режиме 3д такое можно смотреть на любом канале - факт))
 

TopGun
не позорь диплом, сноси :)))
 

Страница 1 из 2

1, 2  След.