Торренты   
 
 


Шевели ластами! (полная версия) в 3Д / Sammy's avonturen: De geheime doorgang in 3D (Бен Стассен / Ben Stassen) [2010 г., 720p, Anaglyph, red'cyan]

Рейтинг 3D:
2 голосов
5.5
Рейтинг фильма:
2 голосов
6.5
 
Вы должны быть авторизированы,
чтобы ставить оценки


Шевели ластами! (полная версия) в 3Д / Sammy's avonturen: De geheime doorgang in 3D
Год выпуска: 2010
Страна: Бельгия
Жанр: Приключения, мультфильм
Продолжительность: 01:25:35
Перевод: Профессиональный дублированный (с лицензии)
+ многоголосый закадровый (3D-RuGroup) в добавленых сценах.
Режиссер: Бен Стассен / Ben Stassen
В ролях: Мелани Гриффит, Изабелль Фюрман, Юрий Ловенталь, Энтони Андерсон, Сидни Хоуп Баннер, Эд Бегли мл., Даррен Капоцци, Пэт Кэрролл, Крис Эндрю Кулла, Тим Карри
Описание: Для маленькой черепашки подводный мир — самое безопасное место. Здесь акулы, пираньи, змеи, а на берегу поджидают люди. И наш маленький Сэмми хочет узнать весь мир, от полярных льдов до субтропиков. Путешествие продлится ровно полвека, начиная с 1959 года, за это время даже климат успеет измениться.
Релиз:
Формат: MKV
Видео:
AVC; 1280х720p; 23,976 fps; 4761 Kbps
Аудио:
Russian; AC-3; 48,0 Khz; 640 Kbps; 6ch(Front: L C R, Side: L R, LFE)
French; AC-3; 48,0 Khz; 640 Kbps; 6ch(Front: L C R, Side: L R, LFE)
Субтитры: Нет

Формат 3d: Anaglyph
Цвета очков:

MediaInfo

Общее
Уникальный идентификатор : 224524643934925458920041777540471892570 (0xA8E9DF9DBE2E1231AD8754C16A0AAA5A)
Полное имя : Sammy's.Avonturen.2010.AVC.720p_AnRC.Rus.Fra.3D-RuGroup.mkv
Формат : Matroska
Размер файла : 3,68 Гбайт
Продолжительность : 1 ч. 25 м.
Общий поток : 6164 Кбит/сек
Дата кодирования : UTC 2011-04-26 16:00:11
Программа кодирования : mkvmerge v4.6.0 ('Still Crazy After All These Years') сборка от Mar 13 2011 18:33:29
Библиотека кодирования : libebml v1.2.0 + libmatroska v1.1.0
Видео
Идентификатор : 1
Формат : AVC
Формат/Информация : Advanced Video Codec
Профиль формата : High@L4.1
Параметр CABAC формата : Да
Параметр ReFrames формата : 3 кадра
Параметры GOP формата : M=4, N=24
Режим смешивания : Header stripping
Идентификатор кодека : V_MPEG4/ISO/AVC
Продолжительность : 1 ч. 25 м.
Вид битрейта : Переменный
Битрейт : 4761 Кбит/сек
Номинальный битрейт : 5000 Кбит/сек
Максимальный битрейт : 14,0 Мбит/сек
Ширина : 1280 пикс.
Высота : 720 пикс.
Соотношение сторон : 16:9
Частота кадров : 23,976 кадр/сек
Цветовое пространство : YUV
Подвыборка цветности : 4:2:0
Битовая глубина : 8 бит
Тип развёртки : Прогрессивная
Бит/(Пиксели*Кадры) : 0.215
Размер потока : 2,85 Гбайт (77%)
Заголовок : Sammy's.Avonturen.2010.AVC.720p_AnRC.Rus.Fra.3D-RuGroup
Библиотека кодирования : x264 core 114 r1913 5fd3dce
Настройки программы : cabac=1 / ref=4 / deblock=1:-1:-1 / analyse=0x3:0x113 / me=hex / subme=10 / psy=1 / psy_rd=1.00:0.15 / mixed_ref=1 / me_range=16 / chroma_me=1 / trellis=2 / 8x8dct=1 / cqm=0 / deadzone=21,11 / fast_pskip=1 / chroma_qp_offset=-3 / threads=3 / sliced_threads=0 / slices=4 / nr=0 / decimate=1 / interlaced=0 / constrained_intra=0 / bframes=3 / b_pyramid=1 / b_adapt=1 / b_bias=0 / direct=1 / weightb=1 / open_gop=1 / weightp=0 / keyint=24 / keyint_min=2 / scenecut=40 / intra_refresh=0 / rc_lookahead=24 / rc=abr / mbtree=1 / bitrate=5000 / ratetol=1.0 / qcomp=0.60 / qpmin=0 / qpmax=69 / qpstep=4 / vbv_maxrate=14000 / vbv_bufsize=14500 / nal_hrd=vbr / ip_ratio=1.40 / aq=1:1.00
Основные цвета : BT.709-5, BT.1361, IEC 61966-2-4, SMPTE RP177
Характеристики трансфера : BT.709-5, BT.1361
Коэффициенты матрицы : BT.709-5, BT.1361, IEC 61966-2-4 709, SMPTE RP177
Аудио #1
Идентификатор : 2
Формат : AC-3
Формат/Информация : Audio Coding 3
Расширение режима : CM (complete main)
Режим смешивания : Header stripping
Идентификатор кодека : A_AC3
Продолжительность : 1 ч. 25 м.
Вид битрейта : Постоянный
Битрейт : 640 Кбит/сек
Каналы : 6 каналов
Расположение каналов : Front: L C R, Side: L R, LFE
Частота : 48,0 КГц
Битовая глубина : 16 бит
Метод сжатия : С потерями
Размер потока : 392 Мбайт (10%)
Заголовок : Russian 5.1 Dub 3D-RuGroup
Язык : Russian
Аудио #2
Идентификатор : 3
Формат : AC-3
Формат/Информация : Audio Coding 3
Расширение режима : CM (complete main)
Режим смешивания : Header stripping
Идентификатор кодека : A_AC3
Продолжительность : 1 ч. 25 м.
Вид битрейта : Постоянный
Битрейт : 640 Кбит/сек
Каналы : 6 каналов
Расположение каналов : Front: L C R, Side: L R, LFE
Частота : 48,0 КГц
Битовая глубина : 16 бит
Метод сжатия : С потерями
Размер потока : 392 Мбайт (10%)
Заголовок : French 5.1
Язык : French
Меню
00:00:00.000 : :- 01
00:07:11.598 : :- 02
00:13:31.728 : :- 03
00:19:45.309 : :- 04
00:29:45.325 : :- 05
00:36:54.337 : :- 06
00:42:37.430 : :- 07
00:49:37.975 : :- 08
00:56:57.372 : :- 09
01:04:37.457 : :- 10
01:10:45.241 : :- 11
01:18:32.708 : :- 12

Скриншоты







Мои раздачи в анаглифе
Благодарности релизеру (0)

Торрент:

Статус:

Размер:

Зарегистрирован   [ 2011-04-26 20:39 ]

проверено

3.68 GB