Торренты   
 
 


Sony Demo Disc Vol.2 [2010 г, 720p-1080p, Anamorph OverUnder]

Рейтинг 3D:
Пока никто не голосовал
Рейтинг фильма:
Пока никто не голосовал
 
Вы должны быть авторизированы,
чтобы ставить оценки


Sony Demo Disc Vol.2

Год выпуска: 2010
Жанр: Демо
Общая продолжительность: 00:32:00
Перевод: Отсутствует
Описание: Наиболее интересные ролики с демо диска Sony Vol.2.
Доп.информация: Ролики объединены в 4 файла. В файлы вшиты главы: 1 ролик - 1 глава. На ТВ-ЮСБ, к сожалению, эти главы не работают! Наименования роликов и тайминг в первом и втором файлах смотрите в самом низу соответствующего МедиаИнфо.
Формат 3d: Anamorph OverUnder
Качество: BDRip
Контейнер: MKV
1. Sony-2-1080 (3 ролика)
Продолжительность: 00:06:13
Видео: AVC / 1920х1080p / 23,976 fps / 8 027 Kbps
Аудио: AC3 / 6 ch / 448 Kbps / 48 KHz

MediaInfo

General
Complete name : F:\Downloads\Sony-2\Sony-2-1080.mkv
Format : Matroska
File size : 386 MiB
Duration : 6mn 14s
Overall bit rate : 8 647 Kbps
Encoded date : UTC 2011-04-26 17:53:33
Writing application : mkvmerge v3.4.0 ('Rapunzel') сборка от May 15 2010 09:38:20
Writing library : libebml v0.8.0 + libmatroska v0.9.0
Video
ID : 1
Format : AVC
Format/Info : Advanced Video Codec
Format profile : High@L4.1
Format settings, CABAC : Yes
Format settings, ReFrames : 4 frames
Codec ID : V_MPEG4/ISO/AVC
Duration : 6mn 14s
Bit rate : 8 027 Kbps
Width : 1 920 pixels
Height : 1 080 pixels
Display aspect ratio : 0.889
Original display aspect ratio : 16:9
Frame rate : 23.976 fps
Color space : YUV
Chroma subsampling : 4:2:0
Bit depth : 8 bits
Scan type : Progressive
Bits/(Pixel*Frame) : 0.161
Stream size : 358 MiB (93%)
Writing library : x264 core 113 r1884 7313bb5
Encoding settings : cabac=1 / ref=4 / deblock=1:-1:-1 / analyse=0x3:0x113 / me=umh / subme=9 / psy=1 / psy_rd=1.00:0.15 / mixed_ref=1 / me_range=16 / chroma_me=1 / trellis=2 / 8x8dct=1 / cqm=0 / deadzone=21,11 / fast_pskip=1 / chroma_qp_offset=-3 / threads=3 / sliced_threads=0 / nr=0 / decimate=1 / interlaced=0 / constrained_intra=0 / bframes=4 / b_pyramid=2 / b_adapt=2 / b_bias=0 / direct=3 / weightb=1 / open_gop=0 / weightp=2 / keyint=250 / keyint_min=23 / scenecut=40 / intra_refresh=0 / rc_lookahead=40 / rc=crf / mbtree=1 / crf=18.0 / qcomp=0.60 / qpmin=10 / qpmax=69 / qpstep=4 / vbv_maxrate=50000 / vbv_bufsize=50000 / crf_max=0.0 / nal_hrd=none / ip_ratio=1.40 / aq=1:1.00
Audio
ID : 2
Format : AC-3
Format/Info : Audio Coding 3
Mode extension : CM (complete main)
Codec ID : A_AC3
Duration : 6mn 14s
Bit rate mode : Constant
Bit rate : 448 Kbps
Channel(s) : 6 channels
Channel positions : Front: L C R, Side: L R, LFE
Sampling rate : 48.0 KHz
Bit depth : 16 bits
Compression mode : Lossy
Stream size : 20.0 MiB (5%)
Menu
00:00:00.000 : en: 01 - Timon & Pumbaa's 3D Showcase
00:03:52.107 : en: 02 - Timon & Pumbaa's 3D Showcase (2)
00:04:37.402 : en: 03 - The Nightmare Before Christmas

2. Sony-2-720-2ch (13 роликов)
Продолжительность: 00:21:09
Видео: AVC / 1280х720p / 59.940 fps / 8 639 Kbps
Аудио: AC3 / 2 ch / 192 Kbps / 48 KHz

MediaInfo

General
Complete name : F:\Downloads\Sony-2\Sony-2-720-2ch.mkv
Format : Matroska
File size : 1.33 GiB
Duration : 21mn 9s
Overall bit rate : 9 010 Kbps
Encoded date : UTC 2011-04-26 17:54:36
Writing application : mkvmerge v3.4.0 ('Rapunzel') сборка от May 15 2010 09:38:20
Writing library : libebml v0.8.0 + libmatroska v0.9.0
Video
ID : 1
Format : AVC
Format/Info : Advanced Video Codec
Format profile : High@L4.1
Format settings, CABAC : Yes
Format settings, ReFrames : 4 frames
Codec ID : V_MPEG4/ISO/AVC
Duration : 21mn 9s
Bit rate : 8 639 Kbps
Width : 1 280 pixels
Height : 720 pixels
Display aspect ratio : 0.889
Original display aspect ratio : 16:9
Frame rate : 59.940 fps
Color space : YUV
Chroma subsampling : 4:2:0
Bit depth : 8 bits
Scan type : Progressive
Bits/(Pixel*Frame) : 0.156
Stream size : 1.28 GiB (96%)
Writing library : x264 core 113 r1884 7313bb5
Encoding settings : cabac=1 / ref=4 / deblock=1:-1:-1 / analyse=0x3:0x113 / me=umh / subme=9 / psy=1 / psy_rd=1.00:0.15 / mixed_ref=1 / me_range=16 / chroma_me=1 / trellis=2 / 8x8dct=1 / cqm=0 / deadzone=21,11 / fast_pskip=1 / chroma_qp_offset=-3 / threads=3 / sliced_threads=0 / nr=0 / decimate=1 / interlaced=0 / constrained_intra=0 / bframes=4 / b_pyramid=2 / b_adapt=2 / b_bias=0 / direct=3 / weightb=1 / open_gop=0 / weightp=2 / keyint=250 / keyint_min=25 / scenecut=40 / intra_refresh=0 / rc_lookahead=40 / rc=crf / mbtree=1 / crf=18.0 / qcomp=0.60 / qpmin=10 / qpmax=69 / qpstep=4 / vbv_maxrate=50000 / vbv_bufsize=50000 / crf_max=0.0 / nal_hrd=none / ip_ratio=1.40 / aq=1:1.00
Audio
ID : 2
Format : AC-3
Format/Info : Audio Coding 3
Mode extension : CM (complete main)
Codec ID : A_AC3
Duration : 21mn 9s
Bit rate mode : Constant
Bit rate : 192 Kbps
Channel(s) : 2 channels
Channel positions : Front: L R
Sampling rate : 48.0 KHz
Bit depth : 16 bits
Compression mode : Lossy
Stream size : 29.1 MiB (2%)
Menu
00:00:00.000 : en: 01 - Monolithic Design TV Stand
00:02:30.283 : en: 02 - Gran Turismo 5 (PS3)
00:02:57.794 : en: 03 - Tumble (PS3)
00:04:10.917 : en: 04 - Genki Rockets - Make Believe
00:06:07.533 : en: 05 - 3D Sweep Panorama
00:07:45.147 : en: 06 - Cyber-shot - 3D Sweep Panorama
00:09:18.857 : en: 07 - 2010 Masters Golf Tournament
00:11:12.621 : en: 08 - Sao Paulo Indy 300
00:12:45.897 : en: 09 - Sony Aquarium 2010
00:14:18.055 : en: 10 - The Final of the 2010 FIFA World Cup
00:17:43.277 : en: 11 - PlayMemories
00:19:14.935 : en: 12 - Tumble (PS3) 2
00:20:23.270 : en: 13 - Monolithic Design TV Stand with Speaker

3. Sony-2-720-6ch- Sony 3D TV Commercial (featuring Kaka)
Продолжительность: 00:01:01
Видео: AVC / 1280х720p / 59.940 fps / 9 533 Kbps
Аудио: AC3 / 6 ch / 640 Kbps / 48 KHz

MediaInfo

General
Complete name : F:\Downloads\Sony-2\Sony-2-720-6ch-Sony.3D.TV.Commercial.(featuring.Kaka).mkv
Format : Matroska
File size : 76.8 MiB
Duration : 1mn 2s
Overall bit rate : 10.4 Mbps
Encoded date : UTC 2011-04-26 07:20:05
Writing application : mkvmerge v3.4.0 ('Rapunzel') сборка от May 15 2010 09:38:20
Writing library : libebml v0.8.0 + libmatroska v0.9.0
Video
ID : 1
Format : AVC
Format/Info : Advanced Video Codec
Format profile : High@L4.1
Format settings, CABAC : Yes
Format settings, ReFrames : 4 frames
Format settings, GOP : M=3, N=26
Codec ID : V_MPEG4/ISO/AVC
Duration : 1mn 2s
Bit rate : 9 533 Kbps
Width : 1 280 pixels
Height : 720 pixels
Display aspect ratio : 0.889
Original display aspect ratio : 16:9
Frame rate : 59.940 fps
Color space : YUV
Chroma subsampling : 4:2:0
Bit depth : 8 bits
Scan type : Progressive
Bits/(Pixel*Frame) : 0.173
Stream size : 70.5 MiB (92%)
Writing library : x264 core 113 r1884 7313bb5
Encoding settings : cabac=1 / ref=4 / deblock=1:-1:-1 / analyse=0x3:0x113 / me=umh / subme=9 / psy=1 / psy_rd=1.00:0.15 / mixed_ref=1 / me_range=16 / chroma_me=1 / trellis=2 / 8x8dct=1 / cqm=0 / deadzone=21,11 / fast_pskip=1 / chroma_qp_offset=-3 / threads=3 / sliced_threads=0 / nr=0 / decimate=1 / interlaced=0 / constrained_intra=0 / bframes=4 / b_pyramid=2 / b_adapt=2 / b_bias=0 / direct=3 / weightb=1 / open_gop=0 / weightp=2 / keyint=250 / keyint_min=25 / scenecut=40 / intra_refresh=0 / rc_lookahead=40 / rc=crf / mbtree=1 / crf=18.0 / qcomp=0.60 / qpmin=10 / qpmax=69 / qpstep=4 / vbv_maxrate=50000 / vbv_bufsize=50000 / crf_max=0.0 / nal_hrd=none / ip_ratio=1.40 / aq=1:1.00
Audio
ID : 2
Format : AC-3
Format/Info : Audio Coding 3
Mode extension : CM (complete main)
Codec ID : A_AC3
Duration : 1mn 2s
Bit rate mode : Constant
Bit rate : 640 Kbps
Channel(s) : 6 channels
Channel positions : Front: L C R, Side: L R, LFE
Sampling rate : 48.0 KHz
Bit depth : 16 bits
Compression mode : Lossy
Stream size : 4.74 MiB (6%)

4. Sony-2-720- Shakira featuring Freshlyground (Waka Waka)
Продолжительность: 00:03:37
Видео: AVC / 1280х720p / 59.940 fps / 20.1 Mbps
Аудио: AC3 / 2 ch / 192 Kbps / 48 KHz

MediaInfo

General
Complete name : F:\Downloads\Sony-2\Sony-2-720-Shakira.WakaWaka.mkv
Format : Matroska
File size : 538 MiB
Duration : 3mn 38s
Overall bit rate : 20.7 Mbps
Encoded date : UTC 2011-04-26 07:12:56
Writing application : mkvmerge v3.4.0 ('Rapunzel') сборка от May 15 2010 09:38:20
Writing library : libebml v0.8.0 + libmatroska v0.9.0
Video
ID : 1
Format : AVC
Format/Info : Advanced Video Codec
Format profile : High@L4.1
Format settings, CABAC : Yes
Format settings, ReFrames : 4 frames
Format settings, GOP : M=4, N=32
Codec ID : V_MPEG4/ISO/AVC
Duration : 3mn 38s
Bit rate : 20.1 Mbps
Width : 1 280 pixels
Height : 720 pixels
Display aspect ratio : 0.889
Original display aspect ratio : 16:9
Frame rate : 59.940 fps
Color space : YUV
Chroma subsampling : 4:2:0
Bit depth : 8 bits
Scan type : Progressive
Bits/(Pixel*Frame) : 0.363
Stream size : 522 MiB (97%)
Writing library : x264 core 113 r1884 7313bb5
Encoding settings : cabac=1 / ref=4 / deblock=1:-1:-1 / analyse=0x3:0x113 / me=umh / subme=9 / psy=1 / psy_rd=1.00:0.15 / mixed_ref=1 / me_range=16 / chroma_me=1 / trellis=2 / 8x8dct=1 / cqm=0 / deadzone=21,11 / fast_pskip=1 / chroma_qp_offset=-3 / threads=3 / sliced_threads=0 / nr=0 / decimate=1 / interlaced=0 / constrained_intra=0 / bframes=4 / b_pyramid=2 / b_adapt=2 / b_bias=0 / direct=3 / weightb=1 / open_gop=0 / weightp=2 / keyint=250 / keyint_min=25 / scenecut=40 / intra_refresh=0 / rc_lookahead=40 / rc=crf / mbtree=1 / crf=16.0 / qcomp=0.60 / qpmin=10 / qpmax=69 / qpstep=4 / vbv_maxrate=50000 / vbv_bufsize=50000 / crf_max=0.0 / nal_hrd=none / ip_ratio=1.40 / aq=1:1.00
Audio
ID : 2
Format : AC-3
Format/Info : Audio Coding 3
Mode extension : CM (complete main)
Codec ID : A_AC3
Duration : 3mn 38s
Bit rate mode : Constant
Bit rate : 192 Kbps
Channel(s) : 2 channels
Channel positions : Front: L R
Sampling rate : 48.0 KHz
Bit depth : 16 bits
Compression mode : Lossy
Stream size : 5.00 MiB (1%)

Скриншоты


Благодарности релизеру (3)

Торрент:

Статус:

Размер:

Зарегистрирован   [ 2011-04-26 23:39 ]

проверено

2.31 GB