Торренты   
 
 

 

5 трейлеров новых 3д фильмов [2011 г, 1080p, Anamorph SideBySide]

Рейтинг 3D:
1 голосов
8.0
Рейтинг фильма:
Пока никто не голосовал
 
Вы должны быть авторизированы,
чтобы ставить оценки


5 трейлеров новых 3д фильмов

Год выпуска: 2011
Жанр: Трейлеры
Продолжительность: 00:10:10
Перевод: Отсутствует
Содержание:
1. Тайна красной планеты (Mars Needs Moms). Премьера
10.03.2011г (бюджет 150.000.000 $)
http://www.kinopoisk.ru/level/1/film/441432/
2. Рио (Rio). Премьера 7.04.2011г (бюджет 90.000.000 $)
http://www.kinopoisk.ru/level/1/film/465674/
3. Кунг-фу Панда 2 (Kung Fu Panda 2). Премьера 26.05.2011г.
http://www.kinopoisk.ru/level/1/film/427878/
4. Трансформеры 3 (Transformers: Dark of the Moon). Премьера
30.06.2011г.
http://www.kinopoisk.ru/level/1/film/452899/
5. Ледниковый период 4: Континентальный дрейф (Ice Age:
Continental Drift). Премьера 5.07.2012г.
http://www.kinopoisk.ru/level/1/film/522180/
Формат 3d: Anamorph SideBySide
Порядок ракурсов: Параллельная пара
Качество: HDTVRip
Контейнер: ts
Видео: AVC / 1920х1080i / 25.000 fps / 14.3 Mbps
Аудио: AC3 / 2 ch / 384 Kbps / 48 KHz

MediaInfo

General
ID : 1 (0x1)
Complete name : F:\Downloads\New3dMovieTrailers(5).ts
Format : MPEG-TS
Format/Info : Advanced Video Codec
File size : 1.09 GiB
Duration : 10mn 9s
Overall bit rate : 15.4 Mbps
Maximum Overall bit rate : 35.5 Mbps
Video
ID : 4113 (0x1011)
Menu ID : 1 (0x1)
Format : AVC
Format/Info : Advanced Video Codec
Format profile : High@L4.0
Format settings, CABAC : Yes
Format settings, ReFrames : 4 frames
Format settings, GOP : M=1, N=14
Codec ID : 27
Duration : 10mn 9s
Bit rate mode : Variable
Bit rate : 14.3 Mbps
Maximum bit rate : 40.0 Mbps
Width : 1 920 pixels
Height : 1 080 pixels
Display aspect ratio : 16:9
Frame rate : 25.000 fps
Standard : Component
Color space : YUV
Chroma subsampling : 4:2:0
Bit depth : 8 bits
Scan type : Interlaced
Scan order : Top Field First
Bits/(Pixel*Frame) : 0.275
Stream size : 1.01 GiB (93%)
Color primaries : BT.709-5, BT.1361, IEC 61966-2-4, SMPTE RP177
Transfer characteristics : BT.709-5, BT.1361
Matrix coefficients : BT.709-5, BT.1361, IEC 61966-2-4 709, SMPTE RP177
Audio
ID : 4352 (0x1100)
Menu ID : 1 (0x1)
Format : AC-3
Format/Info : Audio Coding 3
Mode extension : CM (complete main)
Codec ID : 129
Duration : 10mn 9s
Bit rate mode : Constant
Bit rate : 384 Kbps
Channel(s) : 2 channels
Channel positions : Front: L R
Sampling rate : 48.0 KHz
Bit depth : 16 bits
Compression mode : Lossy
Stream size : 27.9 MiB (2%)
Language : English

Скриншоты

Благодарности релизеру (0)

Торрент:

Статус:

Размер:

Зарегистрирован   [ 2011-04-27 16:59 ]

проверено

1.09 GB