Торренты   
 
 


Балбесы / Olsen Banden pa de bonede gulve / Olsen Gang Gets Polished [2010 г, 1080p, Anamorph OverUnder]

Рейтинг 3D:
Пока никто не голосовал
Рейтинг фильма:
Пока никто не голосовал
 
Вы должны быть авторизированы,
чтобы ставить оценки


Балбесы 3Д / Olsen Banden på de bonede gulve / Olsen Gang Gets Polished 3D
Год выпуска: 2010
Страна: Дания
Жанр: Мультфильм, Комедия, Криминал
Продолжительность: 01:18:12
Перевод: Профессиональный (полное дублирование)
Субтитры: Нет
Режиссер: Юрген Лердам / Jørgen Lerdam
Роли озвучивали: Мартин Бух, Николай Кристенсен, Аннетт Хеик, Альберт С. Ланд, Йонас Шмидт
Роли дублировали: Вадим Андреев, Инна Королёва, Иван Жарков, Пётр Иващенко, Всеволод Кузнецов
Описание: Эгон Ольсен — криминальный гений и закоренелый преступник. Его постоянные подельники — Бенни и Кельд, парочка глупых и абсолютно безвредных воришек, никогда не прибегающих к насилию. К сожалению, филигранно продуманные операции Ольсена терпят фиаско с завидной регулярностью, но всякий раз, отмотав срок, компания неунывающих неудачников объединяется, чтобы реализовывать очередной «гениальный» план обогащения.
На сей раз банда Ольсена решает похитить мемориальное перо, которым были написаны лучшие произведения легендарного сказочника Ганса Христиана Андерсена. Но хитроумная операция опять пошла не тем путем! В дело оказались впутаны китайский магнат, датская королева и продажный премьер-министр. Удастся ли Эгону избежать ареста? Или вместо увильнувшей от полиции «крупной рыбы» ему опять придется выступить «козлом отпущения»?..
Доп. информация: Прототипом премьер-министра стал реальный премьер-министр Дании (2001-2009гг.) Андерс Фог Расмуссен, который в данный момент является Генеральным секретарём НАТО (Прим. Ash61).
Формат 3d: Anamorph OverUnder
Качество: BDRip
Контейнер: MKV
Видео: AVC / 1920х1080p / 23,976 fps / 5 781 Kbps
Аудио#1: Русский / AC3 / 6 ch / 384 Kbps / 48 KHz
Аудио#2: Danish / AC3 / 6 ch / 640 kbps / 48 KHz

MediaInfo

General
Complete name : F:\Downloads\OlsenGang.am.mkv
Format : Matroska
File size : 3.79 GiB
Duration : 1h 18mn
Overall bit rate : 6 943 Kbps
Encoded date : UTC 2011-04-30 12:42:39
Writing application : mkvmerge v3.4.0 ('Rapunzel') сборка от May 15 2010 09:38:20
Writing library : libebml v0.8.0 + libmatroska v0.9.0
Video
ID : 1
Format : AVC
Format/Info : Advanced Video Codec
Format profile : High@L4.1
Format settings, CABAC : Yes
Format settings, ReFrames : 4 frames
Codec ID : V_MPEG4/ISO/AVC
Duration : 1h 18mn
Bit rate : 5 781 Kbps
Width : 1 920 pixels
Height : 1 080 pixels
Display aspect ratio : 0.889
Original display aspect ratio : 16:9
Frame rate : 23.976 fps
Color space : YUV
Chroma subsampling : 4:2:0
Bit depth : 8 bits
Scan type : Progressive
Bits/(Pixel*Frame) : 0.116
Stream size : 3.16 GiB (83%)
Title : Rip by Ash61
Writing library : x264 core 113 r1884 7313bb5
Encoding settings : cabac=1 / ref=4 / deblock=1:-1:-1 / analyse=0x3:0x113 / me=umh / subme=9 / psy=1 / psy_rd=1.00:0.15 / mixed_ref=1 / me_range=16 / chroma_me=1 / trellis=2 / 8x8dct=1 / cqm=0 / deadzone=21,11 / fast_pskip=1 / chroma_qp_offset=-3 / threads=3 / sliced_threads=0 / nr=0 / decimate=1 / interlaced=0 / constrained_intra=0 / bframes=5 / b_pyramid=2 / b_adapt=2 / b_bias=0 / direct=3 / weightb=1 / open_gop=0 / weightp=2 / keyint=250 / keyint_min=23 / scenecut=40 / intra_refresh=0 / rc_lookahead=40 / rc=crf / mbtree=1 / crf=18.0 / qcomp=0.60 / qpmin=0 / qpmax=69 / qpstep=4 / ip_ratio=1.40 / aq=1:1.00
Audio #1
ID : 2
Format : AC-3
Format/Info : Audio Coding 3
Mode extension : CM (complete main)
Codec ID : A_AC3
Duration : 1h 18mn
Bit rate mode : Constant
Bit rate : 384 Kbps
Channel(s) : 6 channels
Channel positions : Front: L C R, Side: L R, LFE
Sampling rate : 48.0 KHz
Bit depth : 16 bits
Compression mode : Lossy
Stream size : 215 MiB (6%)
Language : Russian
Audio #2
ID : 3
Format : AC-3
Format/Info : Audio Coding 3
Mode extension : CM (complete main)
Codec ID : A_AC3
Duration : 1h 18mn
Bit rate mode : Constant
Bit rate : 640 Kbps
Channel(s) : 6 channels
Channel positions : Front: L C R, Side: L R, LFE
Sampling rate : 48.0 KHz
Bit depth : 16 bits
Compression mode : Lossy
Stream size : 358 MiB (9%)
Language : Danish
Menu
00:00:00.000 : en: 01
00:05:42.759 : en: 02
00:12:47.516 : en: 03
00:19:21.409 : en: 04
00:26:39.722 : en: 05
00:32:05.756 : en: 06
00:40:25.880 : en: 07
00:46:22.152 : en: 08
00:51:49.145 : en: 09
00:59:42.618 : en: 10
01:05:15.367 : en: 11
01:13:38.327 : en: 12

Скриншоты

Лог кодирования

Благодарности релизеру (3)

Торрент:

Статус:

Размер:

Зарегистрирован   [ 2011-04-30 18:02 ]

поглощено

3.79 GB