Торренты   
 
 

 

IMAX. Телескоп Хаббл в 3D / Hubble 3D (Тони Майерс) [2010 г, BDRip 1080p, Anamorph OverUnder]

Рейтинг 3D:
37 голосов
8.1
Рейтинг фильма:
33 голосов
7.9
 
Вы должны быть авторизированы,
чтобы ставить оценки


Телескоп Хаббл в 3D
IMAX: Hubble 3D
- Год выпуска: 2010
Страна: Канада, IMAX Space Ltd., Warner Bros. Pictures
Жанр: Документальный
Продолжительность: 00:44:00
Перевод: Профессиональный (двухголосый закадровый) (3D-RuGroup)
Субтитры: есть-Режиссер: Тони Майерс
В ролях: Скотт Д. Олтмэн, Леонардо ДиКаприо, Andrew J. Feustel, Майкл Т. Гуд, John M. Grunsfeld, Грегори С. Джонсон, Майкл Дж. Массимино, К. Меган МакАртур-Описание:
Используя визуальную мощь кинотеатров IMAX, Hubble 3D позволит кинозрителям путешествовать через отдаленные галактики, исследовать великолепие и тайны нашей вселенной, и сопровождать работу астронавтов, на плечи которых возложены самые трудные и важные задачи в истории НАСА. Благодаря космическому телескопу Хаббл мы увидим вселенную такой, какой ее только можно увидеть в космосе с помощью самого мощного в мире телескопа.-Релиз группы:
-Качество: 3D BDrip
Контейнер: MKV
Формат 3D: Half OverUnder / Вертикальная анаморфная стереопара
Видео кодек: x264
Аудио кодек: AC3
Видео: MPEG4 Video (H264) 1920x1080 23.976 кадр/сек 9013 Кбит/сек
Аудио Rus: AC3, 6 каналов, 640 Кбит/сек, 48,0 КГц
Аудио Eng: AC3, 6 каналов, 384 Кбит/сек, 48,0 КГц
Субтитры: Russian, English (внешние)

СКРИНШОТЫ



MI

Общее
Уникальный идентификатор : 185067392163374570924965303576388782351 (0x8B3AAEE8246B923698B3EC4FCE41490F)
Полное имя : IMAX.Hubble.3D.BDRip.Half.OU.3D-RuGroup\IMAX.Hubble.3D.BDRip.Half.OU.3D-RuGroup.mkv
Формат : Matroska
Размер файла : 3,15 Гбайт
Продолжительность : 43 м.
Общий поток : 10,2 Мбит/сек
Дата кодирования : UTC 2011-05-01 18:26:57
Программа кодирования : mkvmerge v3.4.0 ('Rapunzel') сборка от May 15 2010 09:38:20
Библиотека кодирования : libebml v0.8.0 + libmatroska v0.9.0
Видео
Идентификатор : 1
Формат : AVC
Формат/Информация : Advanced Video Codec
Профиль формата : High@L4.0
Параметр CABAC формата : Да
Параметр ReFrames формата : 4 кадра
Идентификатор кодека : V_MPEG4/ISO/AVC
Продолжительность : 43 м.
Битрейт : 9013 Кбит/сек
Ширина : 1920 пикс.
Высота : 1080 пикс.
Соотношение сторон : 16:9
Частота кадров : 23,976 кадр/сек
Частота кадров в оригинале : 23,000 кадр/сек
Цветовое пространство : YUV
Подвыборка цветности : 4:2:0
Битовая глубина : 8 бит
Тип развёртки : Прогрессивная
Бит/(Пиксели*Кадры) : 0.181
Размер потока : 2,77 Гбайт (88%)
Заголовок : IMAX.Hubble.3D.BDRip.Half.OU.3D-RuGroup
Библиотека кодирования : x264 core 115 r1947 b5a8ad7
Настройки программы : cabac=1 / ref=4 / deblock=1:-3:-3 / analyse=0x3:0x133 / me=umh / subme=10 / psy=1 / psy_rd=1.00:0.25 / mixed_ref=1 / me_range=48 / chroma_me=1 / trellis=2 / 8x8dct=1 / cqm=0 / deadzone=21,11 / fast_pskip=0 / chroma_qp_offset=-4 / threads=3 / sliced_threads=0 / nr=0 / decimate=1 / interlaced=0 / bluray_compat=0 / constrained_intra=0 / bframes=6 / b_pyramid=2 / b_adapt=2 / b_bias=0 / direct=3 / weightb=1 / open_gop=0 / weightp=2 / keyint=250 / keyint_min=23 / scenecut=40 / intra_refresh=0 / rc_lookahead=60 / rc=crf / mbtree=1 / crf=18.0 / qcomp=0.70 / qpmin=0 / qpmax=51 / qpstep=4 / ip_ratio=1.40 / aq=1:0.80
Аудио #1
Идентификатор : 2
Формат : AC-3
Формат/Информация : Audio Coding 3
Расширение режима : CM (complete main)
Идентификатор кодека : A_AC3
Продолжительность : 43 м.
Вид битрейта : Постоянный
Битрейт : 640 Кбит/сек
Каналы : 6 каналов
Расположение каналов : Front: L C R, Side: L R, LFE
Частота : 48,0 КГц
Битовая глубина : 16 бит
Метод сжатия : С потерями
Размер потока : 201 Мбайт (6%)
Заголовок : Russian
Язык : Russian
Аудио #2
Идентификатор : 3
Формат : AC-3
Формат/Информация : Audio Coding 3
Расширение режима : CM (complete main)
Идентификатор кодека : A_AC3
Продолжительность : 43 м.
Вид битрейта : Постоянный
Битрейт : 384 Кбит/сек
Каналы : 6 каналов
Расположение каналов : Front: L C R, Side: L R, LFE
Частота : 48,0 КГц
Битовая глубина : 16 бит
Метод сжатия : С потерями
Размер потока : 121 Мбайт (4%)
Заголовок : English
Меню
00:00:00.000 : :CHAPTER01
00:09:57.597 : :CHAPTER02
00:20:22.680 : :CHAPTER03
00:30:20.902 : :CHAPTER04
00:42:01.227 : :CHAPTER05
Остальные раздачи этого фильма (7)
Благодарности релизеру (56)

Торрент:

Статус:

Размер:

Зарегистрирован   [ 2011-05-02 00:52 ]

проверено

3.15 GB

 
 Мнение о фильме (3)





От фильма ожидал совершенно другое. Это произведение могу охарактеризовать как семейный фильм о том как наспех обученные американские астронавты "съездили" в космос да еще заодно починили телескоп.
 

в открытом космосе суперрррррррр!!!!!!!!!!
 

3D отличное, за исключением некоторых моментов, когда просто идет разговор. Сценарий самого фильма для документального фильма очень даже ничего, людям заинтересованным в астрономии будет увлекательно.