Торренты   
 
 

 

Медведь Йоги 3Д / Yogi Bear 3D (Эрик Бревиг) [2010 г., 720p, MKV, Anaglyph, red'cyan]

Рейтинг 3D:
32 голосов
8.0
Рейтинг фильма:
31 голосов
7.7
 
Вы должны быть авторизированы,
чтобы ставить оценки


Медведь Йоги 3Д / Yogi Bear 3D
Год выпуска: 2010
Страна: США
Жанр: Комедия, Приключения, Семейный, Фэнтази
Продолжительность: 01:20:16
Перевод: Профессиональный (полное дублирование)
Режиссер: Эрик Бревиг
В ролях: Дэн Эйкройд, Джастин Тимберлэйк, Анна Фэрис, Томас Кэвэна, ТиДжей Миллер, Натан Кордри, Эндрю Дэйли, Джош Роберт Томпсон, Дэвид Стотт, Грег Джонсон
Описание: Дела в Джеллистоунском парке идут не очень, и жадный мэр Браун решает закрыть его и продать землю. А это значит, что многие семьи больше не смогут насладиться красотами природы, но, что еще хуже, Йоги и его друг Бу-Бу будут выброшены из их единственного дома, где они прожили всю жизнь. Приняв теперь величайший вызов в своей жизни, Йоги должен доказать, что он действительно «умнее обычных медведей». Он и Бу-Бу объединяются со своим старым противником рейнджером Смитом, чтобы найти способ спасти Джеллистоун от закрытия.
Доп. информация: Формат: MKV
Видео: AVC; 1280x720; 16:9; 23,976 кадр/сек; 5497 Кбит/сек
Аудио:
Russian; AC-3; 48,0 КГц; 384 Кбит/сек; 6ch(Front: L C R, Side: L R, LFE)
English; AC-3; 48,0 КГц; 640 Кбит/сек; 6ch(Front: L C R, Side: L R, LFE)
Раздача в AVI формате тут :)

Формат 3d: Anaglyph
Цвета очков:

MediaInfo

Общее
Уникальный идентификатор : 211693155854320012776320418426121788630 (0x9F429E68E6BBFC1A92A7DE042B1A9CD6)
Полное имя : Yogi_Bear_3D_AnRC.mkv
Формат : Matroska
Размер файла : 3,74 Гбайт
Продолжительность : 1 ч. 20 м.
Общий поток : 6653 Кбит/сек
Дата кодирования : UTC 2011-04-30 17:16:55
Программа кодирования : mkvmerge v4.7.0 ('Just Like You Imagined') сборка от Apr 21 2011 01:13:14
Библиотека кодирования : libebml v1.2.0 + libmatroska v1.1.0
Видео
Идентификатор : 1
Формат : AVC
Формат/Информация : Advanced Video Codec
Профиль формата : High@L4.1
Параметр CABAC формата : Да
Параметр ReFrames формата : 3 кадры
Параметры GOP формата : M=4, N=24
Режим смешивания : Header stripping
Идентификатор кодека : V_MPEG4/ISO/AVC
Продолжительность : 1 ч. 20 м.
Вид битрейта : Переменный
Битрейт : 5497 Кбит/сек
Номинальный битрейт : 5850 Кбит/сек
Максимальный битрейт : 14,0 Мбит/сек
Ширина : 1280 пикс.
Высота : 720 пикс.
Соотношение сторон : 16:9
Частота кадров : 23,976 кадр/сек
Цветовое пространство : YUV
Подвыборка цветности : 4:2:0
Битовая глубина : 8 бит
Тип развёртки : Прогрессивная
Бит/(Пиксели*Кадры) : 0.249
Размер потока : 3,09 Гбайт (83%)
Библиотека кодирования : x264 core 114 r1913 5fd3dce
Настройки программы : cabac=1 / ref=4 / deblock=1:-1:-1 / analyse=0x3:0x113 / me=hex / subme=10 / psy=1 / psy_rd=1.00:0.15 / mixed_ref=1 / me_range=16 / chroma_me=1 / trellis=2 / 8x8dct=1 / cqm=0 / deadzone=21,11 / fast_pskip=1 / chroma_qp_offset=-3 / threads=3 / sliced_threads=0 / slices=4 / nr=0 / decimate=1 / interlaced=0 / constrained_intra=0 / bframes=3 / b_pyramid=1 / b_adapt=1 / b_bias=0 / direct=1 / weightb=1 / open_gop=0 / weightp=0 / keyint=24 / keyint_min=2 / scenecut=40 / intra_refresh=0 / rc_lookahead=24 / rc=abr / mbtree=1 / bitrate=5850 / ratetol=1.0 / qcomp=0.60 / qpmin=0 / qpmax=69 / qpstep=4 / vbv_maxrate=14000 / vbv_bufsize=14500 / nal_hrd=vbr / ip_ratio=1.40 / aq=1:1.00
Язык : English
Основные цвета : BT.709-5, BT.1361, IEC 61966-2-4, SMPTE RP177
Характеристики трансфера : BT.709-5, BT.1361
Коэффициенты матрицы : BT.709-5, BT.1361, IEC 61966-2-4 709, SMPTE RP177
Аудио #1
Идентификатор : 2
Формат : AC-3
Формат/Информация : Audio Coding 3
Расширение режима : CM (complete main)
Режим смешивания : Header stripping
Идентификатор кодека : A_AC3
Продолжительность : 1 ч. 20 м.
Вид битрейта : Постоянный
Битрейт : 384 Кбит/сек
Канал(ы) : 6 канала(ов)
Расположение каналов : Front: L C R, Side: L R, LFE
Частота : 48,0 КГц
Битовая глубина : 16 бит
Метод сжатия : С потерями
Размер потока : 221 Мбайт (6%)
Заголовок : AC-3, 384 Kbps, 48.0 KHz, 6 ch
Язык : Russian
Аудио #2
Идентификатор : 3
Формат : AC-3
Формат/Информация : Audio Coding 3
Расширение режима : CM (complete main)
Режим смешивания : Header stripping
Идентификатор кодека : A_AC3
Продолжительность : 1 ч. 20 м.
Вид битрейта : Постоянный
Битрейт : 640 Кбит/сек
Канал(ы) : 6 канала(ов)
Расположение каналов : Front: L C R, Side: L R, LFE
Частота : 48,0 КГц
Битовая глубина : 16 бит
Метод сжатия : С потерями
Размер потока : 368 Мбайт (10%)
Заголовок : AC-3, 640 Kbps, 48.0 KHz, 6 ch
Язык : English

Скриншоты








Мои раздачи в анаглифе
Остальные раздачи этого фильма (5)
Благодарности релизеру (0)

Торрент:

Статус:

Размер:

Зарегистрирован   [ 2011-05-02 01:05 ]

проверено

3.74 GB

 
 Мнение о фильме (10)





 

И о чём нам должна сказать эта ссылка на страничку Кинопоиска, мы её уже не раз видели! Типа 31 марта? Ну дык юзайте трекеры и постоянно будете видеть на них раньше, чем там обещано! И высказывания типа: "Это ещё не вышло, знач фэйк!", мы тоже уже сто раз видели! :)
 

3D очень хорошее. На телевизоре Lg 55W смотрится отлично. Вылеты и объем замечательные. По качеству сравнимо с концертом Scorpions.
 

3Д отличное, на уровне "Путешествие к центру земли " 2008 года
 

3D отличное, самый что ни но есть семейный фильмец, смеялись много, Спасибо Александр! А да, мэр городка точная копия мэров наших больших и малых городков: посерил и уже думает кому продать своё г..))
 

Спасибо за фильм!!! Всей семьей на одном дыхание посмотрели! Всем понравилось! Картинка объемная!
 

Спасибо!!! 3д и сам фильм в отличном качестве. качайте не пожелеете.
 

Спасибо! Фильм понравился, хоть и сюжет банальный, посмеялись. 3D вылеты порадовали особенно в паре с акустикой 5.1 великолепно!!! Я аж дернулся уворачиваться :)
 

Спасибо! фильм очень понравился. Качество отличное, 3D отличное. Простой, добрый фильм, посмотрели всей семьей два раза подряд. Всем спасибо за раздачу!
 

Фильм для семейого просмотра в самый раз, 3-д улет))))))
 
Алексей "51" Профиль 09-Мар-2014 16:03