Торренты   
 
 


Чудеса океана / Ocean Wonderland (Жан-Жак Мантелло / Jean-Jacques Mantello ) [2003 г., Документальный,1080p, BDrip, OverUnder]

Рейтинг 3D:
Пока никто не голосовал
Рейтинг фильма:
Пока никто не голосовал
 
Вы должны быть авторизированы,
чтобы ставить оценки


Чудеса океана / Ocean Wonderland Год выпуска: 2003
Страна: Франция
Жанр: Документальный
Продолжительность: 0:40:39
Перевод: Профессиональный (полное дублирование)
Субтитры: нет-Режиссер: Жан-Жак Мантелло / Jean-Jacques Mantello
Описание: «Чудеса океана» — первый трехмерный подводный широкоформатный фильм, целиком снятый с использованием цифровых технологий. Благодаря этим технологиям, большая часть кадров картины демонстрирует подводный мир в естественном освещении. Основная тема фильма, снятого на Большом Барьерном рифе и Багамах, — невероятное разнообразие морской жизни на коралловых рифах и поражающая воображение красота бесчисленных вариаций самих кораллов. Основная миссия — подчеркнуть важную роль коралловых колоний в поддержании экологического равновесия на нашей планете, и предупредить людей об опасности, что грозит с их уничтожением.-Релиз группы:
Качество: BDRip
Формат: MKV
Формат 3d: OverUnder / Вертикальная стереопара
Видео кодек: h264
Аудио кодек: AC3
Видео: MPEG4 Video (H264) 1920x2160 23.98fps 33,2 Мбит/сек
Аудио 1: Rus AC3 48000Hz 6ch 448 Kbps 16 бит
Аудио: Eng AC3 48000Hz 6ch 640 Kbps 16 бит-Лучшее "спасибо" - скачать сэмпл...

Скриншоты



Gif анимация

Медиа инфо

Общее
Уникальный идентификатор : 184643755109802134887249937167019341743 (0x8AE917FCCA095D1BA122346CE596F7AF)
Полное имя : Ocean.Wonderland.2003.BD3DRip.AVC.1080p_OU.Rus.Eng.3D-RuGroup.mkv
Формат : Matroska
Размер файла : 9,94 Гбайт
Продолжительность : 40 м.
Общий поток : 35,0 Мбит/сек
Название фильма : Ocean.Wonderland.2003.BD3DRip.AVC.1080p_OU.Rus.Eng.3D-RuGroup
Дата кодирования : UTC 2011-05-02 16:37:18
Программа кодирования : mkvmerge v3.4.0 ('Rapunzel') сборка от May 15 2010 09:38:20
Библиотека кодирования : libebml v0.8.0 + libmatroska v0.9.0
Видео
Идентификатор : 1
Формат : AVC
Формат/Информация : Advanced Video Codec
Профиль формата : High@L5.0
Параметр CABAC формата : Да
Параметр ReFrames формата : 4 кадры
Идентификатор кодека : V_MPEG4/ISO/AVC
Продолжительность : 40 м.
Битрейт : 33,2 Мбит/сек
Ширина : 1920 пикс.
Высота : 2160 пикс.
Соотношение сторон : 0,889
Частота кадров : 23,976 кадр/сек
Цветовое пространство : YUV
Подвыборка цветности : 4:2:0
Битовая глубина : 8 бит
Тип развёртки : Прогрессивная
Бит/(Пиксели*Кадры) : 0.334
Размер потока : 9,43 Гбайт (95%)
Заголовок : Ocean Wonderland 3D.1080p_OU.3D-RuGroup
Библиотека кодирования : x264 core 114 r1924 08d04a4
Настройки программы : cabac=1 / ref=4 / deblock=1:-3:-3 / analyse=0x3:0x133 / me=umh / subme=10 / psy=1 / psy_rd=1.00:0.15 / mixed_ref=1 / me_range=16 / chroma_me=1 / trellis=2 / 8x8dct=1 / cqm=0 / deadzone=21,11 / fast_pskip=0 / chroma_qp_offset=-3 / threads=6 / sliced_threads=0 / nr=0 / decimate=1 / interlaced=0 / constrained_intra=0 / bframes=7 / b_pyramid=2 / b_adapt=2 / b_bias=0 / direct=3 / weightb=1 / open_gop=0 / weightp=2 / keyint=250 / keyint_min=23 / scenecut=40 / intra_refresh=0 / rc_lookahead=40 / rc=crf / mbtree=1 / crf=18.0 / qcomp=0.70 / qpmin=0 / qpmax=69 / qpstep=4 / ip_ratio=1.40 / aq=1:0.80
Аудио #1
Идентификатор : 2
Формат : AC-3
Формат/Информация : Audio Coding 3
Расширение режима : CM (complete main)
Идентификатор кодека : A_AC3
Продолжительность : 40 м.
Вид битрейта : Постоянный
Битрейт : 448 Кбит/сек
Канал(ы) : 6 канала(ов)
Расположение каналов : Front: L C R, Side: L R, LFE
Частота : 48,0 КГц
Битовая глубина : 16 бит
Метод сжатия : С потерями
Размер потока : 130 Мбайт (1%)
Заголовок : Профессиональный (дублированный)
Язык : Russian
Аудио #2
Идентификатор : 3
Формат : AC-3
Формат/Информация : Audio Coding 3
Расширение режима : CM (complete main)
Идентификатор кодека : A_AC3
Продолжительность : 40 м.
Вид битрейта : Постоянный
Битрейт : 640 Кбит/сек
Канал(ы) : 6 канала(ов)
Расположение каналов : Front: L C R, Side: L R, LFE
Частота : 48,0 КГц
Битовая глубина : 16 бит
Метод сжатия : С потерями
Размер потока : 186 Мбайт (2%)
Язык : English
Меню
00:00:00.000 : :01
00:06:44.738 : :02
00:10:22.163 : :03
00:14:43.508 : :04
00:20:04.870 : :05
00:25:03.085 : :06
00:31:28.178 : :07
00:37:36.546 : :08
Скриншоты сравнения: http://screenshotcomparison.com/comparison/48506
Благодарности релизеру (2)

Торрент:

Статус:

Размер:

Зарегистрирован   [ 2012-05-06 21:41 ]

проверено

9.94 GB