Торренты   
 
 

 

IMAX: Телескоп Хаббл в 3D / IMAX: Hubble 3D (Тони Майерс) [2010 г., 720p, Anaglyph, red'cyan]

Рейтинг 3D:
37 голосов
8.1
Рейтинг фильма:
33 голосов
7.9
 
Вы должны быть авторизированы,
чтобы ставить оценки


-IMAX: Телескоп Хаббл в 3D
IMAX: Hubble 3D
- Год выпуска: 2010
Страна: США
Жанр: Документальный
Продолжительность: 00:44:00
Перевод: Профессиональный
(двухголосый закадровый) (3D-RuGroup)
Режиссер: Тони Майерс
В ролях: Скотт Д. Олтмэн, Леонардо ДиКаприо, Andrew J. Feustel, Майкл Т. Гуд, John M. Grunsfeld, Грегори С. Джонсон, Майкл Дж. Массимино, К. Меган МакАртур
Описание: Используя визуальную мощь кинотеатров IMAX, Hubble 3D позволит кинозрителям путешествовать через отдаленные галактики, исследовать великолепие и тайны нашей вселенной, и сопровождать работу астронавтов, на плечи которых возложены самые трудные и важные задачи в истории НАСА. Благодаря космическому телескопу Хаббл мы увидим вселенную такой, какой ее только можно увидеть в космосе с помощью самого мощного в мире телескопа.-Релиз: -Формат: MKV
Видео:
AVC; 1280x720; 16:9; 23,976 кадр/сек; 3961 Кбит/сек
Аудио:
Russian; AC-3; 48,0 КГц; 640 Кбит/сек; 6ch(Front: L C R, Side: L R, LFE)
English; AC-3; 48,0 КГц; 384 Кбит/сек; 6ch(Front: L C R, Side: L R, LFE)
Субтитры:
Russian, English

Формат 3d: Anaglyph
Цвета очков:

MediaInfo

Общее
Уникальный идентификатор : 201665205937086844208683648475086627883 (0x97B74E4E8387F81F8EE044DCF386A42B)
Полное имя : IMAX.Hubble.3D.2010.AVC.720p_AnRC.Rus.Eng.3D-RuGroup.mkv
Формат : Matroska
Размер файла : 1,56 Гбайт
Продолжительность : 43 м.
Общий поток : 5086 Кбит/сек
Дата кодирования : UTC 2011-05-04 15:53:36
Программа кодирования : mkvmerge v4.7.0 ('Just Like You Imagined') сборка от Apr 21 2011 01:13:14
Библиотека кодирования : libebml v1.2.0 + libmatroska v1.1.0
Видео
Идентификатор : 1
Формат : AVC
Формат/Информация : Advanced Video Codec
Профиль формата : High@L4.1
Параметр CABAC формата : Да
Параметр ReFrames формата : 4 кадры
Идентификатор кодека : V_MPEG4/ISO/AVC
Продолжительность : 43 м.
Битрейт : 3961 Кбит/сек
Ширина : 1280 пикс.
Высота : 720 пикс.
Соотношение сторон : 16:9
Частота кадров : 23,976 кадр/сек
Цветовое пространство : YUV
Подвыборка цветности : 4:2:0
Битовая глубина : 8 бит
Тип развёртки : Прогрессивная
Бит/(Пиксели*Кадры) : 0.179
Размер потока : 1,22 Гбайт (78%)
Заголовок : IMAX.Hubble.3D.2010.AVC.720p_AnRC.Rus.Eng.3D-RuGroup
Библиотека кодирования : x264 core 115 r1947 b5a8ad7
Настройки программы : cabac=1 / ref=4 / deblock=1:-3:-3 / analyse=0x3:0x113 / me=umh / subme=10 / psy=1 / psy_rd=1.00:0.15 / mixed_ref=1 / me_range=16 / chroma_me=1 / trellis=2 / 8x8dct=1 / cqm=0 / deadzone=21,11 / fast_pskip=1 / chroma_qp_offset=-3 / threads=3 / sliced_threads=0 / nr=0 / decimate=1 / interlaced=0 / bluray_compat=0 / constrained_intra=0 / bframes=6 / b_pyramid=0 / b_adapt=2 / b_bias=0 / direct=3 / weightb=1 / open_gop=0 / weightp=2 / keyint=250 / keyint_min=23 / scenecut=40 / intra_refresh=0 / rc_lookahead=60 / rc=crf / mbtree=1 / crf=18.0 / qcomp=0.60 / qpmin=10 / qpmax=69 / qpstep=4 / ip_ratio=1.40 / aq=1:1.00
Аудио #1
Идентификатор : 2
Формат : AC-3
Формат/Информация : Audio Coding 3
Расширение режима : CM (complete main)
Идентификатор кодека : A_AC3
Продолжительность : 43 м.
Вид битрейта : Постоянный
Битрейт : 640 Кбит/сек
Канал(ы) : 6 канала(ов)
Расположение каналов : Front: L C R, Side: L R, LFE
Частота : 48,0 КГц
Битовая глубина : 16 бит
Метод сжатия : С потерями
Размер потока : 201 Мбайт (13%)
Заголовок : AC-3, 640 Kbps, 6 ch, 48.0 KHz, Dub 3D-RuGroup
Язык : Russian
Аудио #2
Идентификатор : 3
Формат : AC-3
Формат/Информация : Audio Coding 3
Расширение режима : CM (complete main)
Идентификатор кодека : A_AC3
Продолжительность : 43 м.
Вид битрейта : Постоянный
Битрейт : 384 Кбит/сек
Канал(ы) : 6 канала(ов)
Расположение каналов : Front: L C R, Side: L R, LFE
Частота : 48,0 КГц
Битовая глубина : 16 бит
Метод сжатия : С потерями
Размер потока : 121 Мбайт (8%)
Заголовок : AC-3, 384 Kbps, 6 ch, 48.0 KHz
Язык : English
Текст #1
Идентификатор : 4
Формат : ASS
Идентификатор кодека : S_TEXT/ASS
Идентификатор кодека/Информация : Advanced Sub Station Alpha
Метод сжатия : Без потерь
Заголовок : S_TEXT/ASS
Язык : Russian
Текст #2
Идентификатор : 5
Формат : UTF-8
Идентификатор кодека : S_TEXT/UTF8
Идентификатор кодека/Информация : UTF-8 Plain Text
Заголовок : S_TEXT/UTF-8
Язык : English
Меню
00:00:00.000 : :CHAPTER01
00:09:57.597 : :CHAPTER02
00:20:22.680 : :CHAPTER03
00:30:20.902 : :CHAPTER04
00:42:01.227 : :CHAPTER05

Скриншоты








Мои раздачи в анаглифе
Остальные раздачи этого фильма (7)
Благодарности релизеру (2)

Торрент:

Статус:

Размер:

Зарегистрирован   [ 2011-05-04 20:48 ]

проверено

1.56 GB

 
 Мнение о фильме (3)





От фильма ожидал совершенно другое. Это произведение могу охарактеризовать как семейный фильм о том как наспех обученные американские астронавты "съездили" в космос да еще заодно починили телескоп.
 

в открытом космосе суперрррррррр!!!!!!!!!!
 

3D отличное, за исключением некоторых моментов, когда просто идет разговор. Сценарий самого фильма для документального фильма очень даже ничего, людям заинтересованным в астрономии будет увлекательно.