Торренты   
 
 

 

Лабиринт страха 3Д / The Schock Labyrinth / Senritsu meikyu 3D (Такаши Шимицу) [2009 г., BDRip 1080p, Anamorph OverUnder]

Рейтинг 3D:
8 голосов
8.6
Рейтинг фильма:
8 голосов
4.6
 
Вы должны быть авторизированы,
чтобы ставить оценки


-Лабиринт страха 3Д
Senritsu meikyû 3D
- Год выпуска: 2009
Страна: Япония
Жанр: ужасы, триллер
Продолжительность: 01:28:52
Перевод: Профессиональный (многоголосый, закадровый) [Лицензия]
-Режиссер: Такаши Шимицу
В ролях: Ай Маэда, Юя Ягира, Сузуки Матсуо, Мисако Ренбуцу, Рио Кацудзи, Сойчиро Масумото, Эрина Мизуно
-Описание: 10 лет назад компания одноклассников оставила Юки в «Лабиринте Страха», аттракционе местного Парка Развлечений. Спустя 10 лет она вернется за ними, чтобы отомстить…-Первый японский ужастик в 3D
- -Качество: 3D BDrip
Контейнер: MKV
Формат 3D: Half OverUnder / Вертикальная анаморфная стереопара
Порядок ракурсов: Правый ракурс первый
Видео кодек: x264
Аудио кодек: AC3
Видео: 1920x1080 / MPEG4 Video (H264) / 23.976 fps / 14.2 Mbps
Аудио#1: AC3 / 48 kHz / 5.1 / 640 kbps / 16 bit (Русский |"Вольга"|)
Аудио#2: AC3 / 48 kHz / 5.1 / 640 kbps / 16 bit (Японский |Оригинал|)
Субтитры: Английские (внешние, .srt)
-Внимание! При воспроизведении на 3D-телевизорах следует поменять местами ракурсы!-

MediaInfo

General
Unique ID : 197201581324887604787208448781390438371 (0x945BA49F478A3B54A2586770818FDFE3)
Complete name : D:\Senritsu.Meikyû.3D.2009.BD3DRip.Half.OU.x264.AC3.3D-RuGroup\Senritsu.Meikyû.3D.2009.BD3DRip.Half.OU.x264.AC3.3D-RuGroup.mkv
Format : Matroska
File size : 9.83 GiB
Duration : 1h 28mn
Overall bit rate : 15.8 Mbps
Encoded date : UTC 2011-05-05 12:43:00
Writing application : mkvmerge v2.9.9 ('Tutu') built on Nov 25 2009 21:13:32
Writing library : libebml v0.7.9 + libmatroska v0.8.1
Video
ID : 1
Format : AVC
Format/Info : Advanced Video Codec
Format profile : High@L4.0
Format settings, CABAC : Yes
Format settings, ReFrames : 3 frames
Codec ID : V_MPEG4/ISO/AVC
Duration : 1h 28mn
Bit rate : 14.2 Mbps
Width : 1 920 pixels
Height : 1 080 pixels
Display aspect ratio : 16:9
Frame rate : 23.976 fps
Original frame rate : 25.000 fps
Color space : YUV
Chroma subsampling : 4:2:0
Bit depth : 8 bits
Scan type : Progressive
Bits/(Pixel*Frame) : 0.286
Stream size : 8.84 GiB (90%)
Writing library : x264 core 112 r1834 a51816a
Encoding settings : cabac=1 / ref=4 / deblock=1:-2:-2 / analyse=0x3:0x113 / me=umh / subme=7 / psy=1 / psy_rd=1.00:0.15 / mixed_ref=1 / me_range=16 / chroma_me=1 / trellis=1 / 8x8dct=1 / cqm=0 / deadzone=21,11 / fast_pskip=1 / chroma_qp_offset=-3 / threads=3 / sliced_threads=0 / nr=0 / decimate=1 / interlaced=0 / constrained_intra=0 / bframes=6 / b_pyramid=1 / b_adapt=2 / b_bias=0 / direct=3 / weightb=1 / open_gop=0 / weightp=2 / keyint=250 / keyint_min=25 / scenecut=40 / intra_refresh=0 / rc_lookahead=25 / rc=crf / mbtree=1 / crf=18.0 / qcomp=0.60 / qpmin=10 / qpmax=51 / qpstep=4 / ip_ratio=1.40 / aq=1:1.00
Audio #1
ID : 2
Format : AC-3
Format/Info : Audio Coding 3
Mode extension : CM (complete main)
Codec ID : A_AC3
Duration : 1h 28mn
Bit rate mode : Constant
Bit rate : 640 Kbps
Channel(s) : 6 channels
Channel positions : Front: L C R, Side: L R, LFE
Sampling rate : 48.0 KHz
Bit depth : 16 bits
Compression mode : Lossy
Stream size : 407 MiB (4%)
Title : MVO "Вольга" (Лицензия)
Language : Russian
Audio #2
ID : 3
Format : AC-3
Format/Info : Audio Coding 3
Mode extension : CM (complete main)
Codec ID : A_AC3
Duration : 1h 28mn
Bit rate mode : Constant
Bit rate : 640 Kbps
Channel(s) : 6 channels
Channel positions : Front: L C R, Side: L R, LFE
Sampling rate : 48.0 KHz
Bit depth : 16 bits
Compression mode : Lossy
Stream size : 407 MiB (4%)
Title : Original
Language : Japanese
Menu
00:00:00.000 : :Chapter01
00:05:46.054 : :Chapter02
00:15:55.788 : :Chapter03
00:26:29.171 : :Chapter04
00:37:00.301 : :Chapter05
00:45:22.720 : :Chapter06
00:57:36.953 : :Chapter07
01:08:17.176 : :Chapter08
01:16:02.850 : :Chapter09
01:24:30.107 : :Chapter10

Скриншоты


Благодарности релизеру (18)

Торрент:

Статус:

Размер:

Зарегистрирован   [ 2011-05-05 19:49 ]

проверено

9.83 GB