Торренты   
 
 

 

LG Demo Disc 3D [2011 г, 1080p, Anamorph OverUnder]

Рейтинг 3D:
22 голосов
8.7
Рейтинг фильма:
23 голосов
7.2
 
Вы должны быть авторизированы,
чтобы ставить оценки


LG Demo Disc 3D

Год выпуска: 2011
Страна: Корея
Жанр: Демо
Общая продолжительность: 00:32:18
Перевод: Отсутствует (почти не требуется)
Описание: Ролики объединены в два файла и вшиты главы (1 ролик - 1 глава). На ТВ-ЮСБ эти главы не работают! Наименования роликов и тайминг смотрите в самом низу соответствующего МедиаИнфо.
Ролики красивые, как и положено демо. Исключил два трейлера (фильмов, которые уже имеются на трекере в полном объёме).
Кстати, в последнем ролике первого файла рекламируются преимущества новых поляризационных ТВ LG в сравнении с текущими, попеременными. Про недостатки, естественно, ни слова! :)
Формат 3d: Anamorph OverUnder
Качество: BDRip
Контейнер: MKV
1. LG-1 (7 роликов)
Продолжительность: 00:18:09
Видео: AVC / 1920х1080p / 23,976 fps / 16.3 Mbps
Аудио: AC3 / 6 ch / 640 Kbps / 48 KHz

MediaInfo

General
Complete name : F:\Downloads\LG-Demo\LG-1.am.mkv
Format : Matroska
File size : 2.19 GiB
Duration : 18mn 10s
Overall bit rate : 17.2 Mbps
Encoded date : UTC 2011-05-05 13:18:58
Writing application : mkvmerge v3.4.0 ('Rapunzel') сборка от May 15 2010 09:38:20
Writing library : libebml v0.8.0 + libmatroska v0.9.0
Video
ID : 1
Format : AVC
Format/Info : Advanced Video Codec
Format profile : High@L4.1
Format settings, CABAC : Yes
Format settings, ReFrames : 4 frames
Format settings, GOP : M=1, N=2
Codec ID : V_MPEG4/ISO/AVC
Duration : 18mn 10s
Bit rate : 16.3 Mbps
Width : 1 920 pixels
Height : 1 080 pixels
Display aspect ratio : 0.889
Original display aspect ratio : 16:9
Frame rate : 23.976 fps
Color space : YUV
Chroma subsampling : 4:2:0
Bit depth : 8 bits
Scan type : Progressive
Bits/(Pixel*Frame) : 0.327
Stream size : 2.06 GiB (94%)
Writing library : x264 core 113 r1884 7313bb5
Encoding settings : cabac=1 / ref=4 / deblock=1:-1:-1 / analyse=0x3:0x113 / me=umh / subme=9 / psy=1 / psy_rd=1.00:0.15 / mixed_ref=1 / me_range=16 / chroma_me=1 / trellis=2 / 8x8dct=1 / cqm=0 / deadzone=21,11 / fast_pskip=1 / chroma_qp_offset=-3 / threads=3 / sliced_threads=0 / nr=0 / decimate=1 / interlaced=0 / constrained_intra=0 / bframes=5 / b_pyramid=2 / b_adapt=2 / b_bias=0 / direct=3 / weightb=1 / open_gop=0 / weightp=2 / keyint=250 / keyint_min=23 / scenecut=40 / intra_refresh=0 / rc_lookahead=40 / rc=crf / mbtree=1 / crf=18.0 / qcomp=0.60 / qpmin=0 / qpmax=69 / qpstep=4 / ip_ratio=1.40 / aq=1:1.00
Audio
ID : 2
Format : AC-3
Format/Info : Audio Coding 3
Mode extension : CM (complete main)
Codec ID : A_AC3
Duration : 18mn 10s
Bit rate mode : Constant
Bit rate : 640 Kbps
Channel(s) : 6 channels
Channel positions : Front: L C R, Side: L R, LFE
Sampling rate : 48.0 KHz
Bit depth : 16 bits
Compression mode : Lossy
Stream size : 83.2 MiB (4%)
Language : English
Menu
00:00:00.000 : en: Far East Movement "Girls on the Dance Floor"
00:01:28.213 : en: Far East Movement "2gether"
00:03:36.049 : en: Sports in Life
00:06:29.639 : en: Dream World
00:08:43.147 : en: The Isle of Man TT
00:11:25.351 : en: A.V.A.
00:14:09.348 : en: Cinema 3D USP

2. LG-2 (6 трейлеров)
Продолжительность: 00:14:09
Видео: AVC / 1920х1080p / 23,976 fps / 11.0 Mbps
Аудио: AC3 / 6 ch / 640 Kbps / 48 KHz

MediaInfo

General
Complete name : F:\Downloads\LG-Demo\LG-2.am.mkv
Format : Matroska
File size : 1.17 GiB
Duration : 14mn 10s
Overall bit rate : 11.8 Mbps
Encoded date : UTC 2011-05-05 13:20:54
Writing application : mkvmerge v3.4.0 ('Rapunzel') сборка от May 15 2010 09:38:20
Writing library : libebml v0.8.0 + libmatroska v0.9.0
Video
ID : 1
Format : AVC
Format/Info : Advanced Video Codec
Format profile : High@L4.1
Format settings, CABAC : Yes
Format settings, ReFrames : 4 frames
Format settings, GOP : M=1, N=16
Codec ID : V_MPEG4/ISO/AVC
Duration : 14mn 10s
Bit rate : 11.0 Mbps
Width : 1 920 pixels
Height : 1 080 pixels
Display aspect ratio : 0.889
Original display aspect ratio : 16:9
Frame rate : 23.976 fps
Color space : YUV
Chroma subsampling : 4:2:0
Bit depth : 8 bits
Scan type : Progressive
Bits/(Pixel*Frame) : 0.221
Stream size : 1.09 GiB (93%)
Writing library : x264 core 113 r1884 7313bb5
Encoding settings : cabac=1 / ref=4 / deblock=1:-1:-1 / analyse=0x3:0x113 / me=umh / subme=9 / psy=1 / psy_rd=1.00:0.15 / mixed_ref=1 / me_range=16 / chroma_me=1 / trellis=2 / 8x8dct=1 / cqm=0 / deadzone=21,11 / fast_pskip=1 / chroma_qp_offset=-3 / threads=3 / sliced_threads=0 / nr=0 / decimate=1 / interlaced=0 / constrained_intra=0 / bframes=5 / b_pyramid=2 / b_adapt=2 / b_bias=0 / direct=3 / weightb=1 / open_gop=0 / weightp=2 / keyint=250 / keyint_min=23 / scenecut=40 / intra_refresh=0 / rc_lookahead=40 / rc=crf / mbtree=1 / crf=18.0 / qcomp=0.60 / qpmin=0 / qpmax=69 / qpstep=4 / ip_ratio=1.40 / aq=1:1.00
Language : English
Audio
ID : 2
Format : AC-3
Format/Info : Audio Coding 3
Mode extension : CM (complete main)
Codec ID : A_AC3
Duration : 14mn 10s
Bit rate mode : Constant
Bit rate : 640 Kbps
Channel(s) : 6 channels
Channel positions : Front: L C R, Side: L R, LFE
Sampling rate : 48.0 KHz
Bit depth : 16 bits
Compression mode : Lossy
Stream size : 64.9 MiB (5%)
Menu
00:00:00.000 : en: Drive Angry
00:02:27.689 : en: City Paradiso
00:05:42.842 : en: Legends of Flight
00:07:50.887 : en: Outback
00:09:51.215 : en: Seedlight
00:11:33.526 : en: Rio

Скриншоты

Инструкция для тех, у кого слева-справа имеются чёрные полосы)!

Необходимо скачать MKVmergeGUI (входит в пакет MkvToolNix). Рекомендую устанавливать последнюю "беспроблеммную" версию - 3.4.0. Брать тут. Программа бесплатная.
Запускаете установленную программу, выбираете данный фильм нажав кнопку "Добавить", далее левый клик на видеодорожку в "Дорожки, главы и теги" -> перейти на вкладку (внизу) "Формат конкретные опции".
Выставить "Ширина/высота дисплея:" - "1920" х "1080"!
Больше ничего лучше не трогать!
Имейте ввиду - реальное разрешение при указанных настройках не меняется, меняется только параметр Display Aspect Ratio (DAR).
Всё, жмите "Начать мультиплексирование"!
Процесс занимает, обычно, ~ 1-2 ГБ/мин.
Для версий программы от 4.0.0 и выше, настоятельно рекомендую отключить сжатие заголовков - либо для каждой дорожки отдельно, либо отключить по умолчанию.
Отключить по умолчанию так:
Меню "Файл" -> "Опции" -> вкладка "mmg" -> снять галку с пункта "Disable header removal compression..."
В других версиях программы всё аналогично, только названия кнопок-пунктов могут немного отличаться - смысл и назначение от этого не меняется.
Господа копипастеры, пожалуйста, уважайте труд рипперов -
не "забывайте" указывать авторство в своих релизах!
Благодарности релизеру (27)

Торрент:

Статус:

Размер:

Зарегистрирован   [ 2011-09-04 07:36 ]

проверено

3.36 GB