Торренты   
 
 


Королевская свадьба / The Royal Wedding [2011 г, 1080i, Anamorph SideBySide]

Рейтинг 3D:
Пока никто не голосовал
Рейтинг фильма:
Пока никто не голосовал
 
Вы должны быть авторизированы,
чтобы ставить оценки


Королевская свадьба / The Royal Wedding
Год выпуска: 2011
Страна: Великобритания
Жанр: Хроника
Продолжительность: 00:10:34 + 00:02:03
Описание: Свадьба принца Уильяма и Кейт Миддлтон 29 апреля 2011г (без самой церемонии венчания).
Бонусом небольшой ролик про Лондон.
Формат 3d: Anamorph SideBySide
Порядок ракурсов: Параллельная пара
Качество: HDTV-Rip
Контейнер: ts
Видео: AVC / 1920х1080i / 25 fps / 15.4 и 14.1 Mbps
Аудио: AC3 / 2 ch / 384 Kbps / 48 KHz

MediaInfo первого файла

General
ID : 1 (0x1)
Complete name : F:\Downloads\RoyalWedding\RoyalWedding.ts
Format : MPEG-TS
Format/Info : Advanced Video Codec
File size : 1.22 GiB
Duration : 10mn 34s
Overall bit rate : 16.6 Mbps
Maximum Overall bit rate : 35.5 Mbps
Video
ID : 4113 (0x1011)
Menu ID : 1 (0x1)
Format : AVC
Format/Info : Advanced Video Codec
Format profile : Main@L4.0
Format settings, CABAC : Yes
Format settings, ReFrames : 4 frames
Codec ID : 27
Duration : 10mn 34s
Bit rate mode : Variable
Bit rate : 15.4 Mbps
Maximum bit rate : 40.0 Mbps
Width : 1 920 pixels
Height : 1 080 pixels
Display aspect ratio : 16:9
Frame rate : 25.000 fps
Color space : YUV
Chroma subsampling : 4:2:0
Bit depth : 8 bits
Scan type : Interlaced
Scan order : Top Field First
Bits/(Pixel*Frame) : 0.297
Stream size : 1.13 GiB (93%)
Color primaries : BT.709-5, BT.1361, IEC 61966-2-4, SMPTE RP177
Transfer characteristics : BT.709-5, BT.1361
Matrix coefficients : BT.709-5, BT.1361, IEC 61966-2-4 709, SMPTE RP177
Audio
ID : 4352 (0x1100)
Menu ID : 1 (0x1)
Format : AC-3
Format/Info : Audio Coding 3
Mode extension : CM (complete main)
Codec ID : 129
Duration : 10mn 34s
Bit rate mode : Constant
Bit rate : 384 Kbps
Channel(s) : 2 channels
Channel positions : Front: L R
Sampling rate : 48.0 KHz
Bit depth : 16 bits
Compression mode : Lossy
Stream size : 29.0 MiB (2%)

Скриншоты

Благодарности релизеру (2)

Торрент:

Статус:

Размер:

Зарегистрирован   [ 2011-05-06 00:59 ]

проверено

1.44 GB