Торренты   
 
 


Гамбустер / HamBuster [2010 г, 1080p, Anamorph SideBySide]

Рейтинг 3D:
Пока никто не голосовал
Рейтинг фильма:
Пока никто не голосовал
 
Вы должны быть авторизированы,
чтобы ставить оценки


Гамбустер / HamBuster
Год выпуска: 2010
Жанр: Мультфильм, Ужасы
Продолжительность: 00:06:53
Описание: Как я понял, это дипломный проект студенческой группы из Supinfocom Arles (против "быстропита").
Формат 3d: Anamorph SideBySide
Порядок ракурсов: Параллельная пара
Качество: HD
Контейнер: mp4
Видео: AVC / 1920х1080p / 24.000 fps / 4 265 Kbps
Аудио: AAC / 2 ch / 150 Kbps / 44,1 KHz

MediaInfo

General
Complete name : F:\Downloads\HamBuster.mp4
Format : MPEG-4
Format profile : Base Media / Version 2
Codec ID : mp42
File size : 218 MiB
Duration : 6mn 53s
Overall bit rate : 4 421 Kbps
Encoded date : UTC 2011-05-01 02:15:59
Tagged date : UTC 2011-05-01 02:15:59
gsst : 0
gstd : 413373
gssd : BADC20583HH1304670334967997
gshh : v3.lscache1.c.youtube.com
Video
ID : 1
Format : AVC
Format/Info : Advanced Video Codec
Format profile : High@L4.0
Format settings, CABAC : Yes
Format settings, ReFrames : 1 frame
Codec ID : avc1
Codec ID/Info : Advanced Video Coding
Duration : 6mn 53s
Bit rate mode : Variable
Bit rate : 4 265 Kbps
Maximum bit rate : 12.4 Mbps
Width : 1 920 pixels
Height : 1 080 pixels
Display aspect ratio : 16:9
Frame rate mode : Variable
Frame rate : 24.000 fps
Minimum frame rate : 23.810 fps
Maximum frame rate : 24.390 fps
Color space : YUV
Chroma subsampling : 4:2:0
Bit depth : 8 bits
Scan type : Progressive
Bits/(Pixel*Frame) : 0.086
Stream size : 210 MiB (96%)
Tagged date : UTC 2011-05-01 02:16:05
Audio
ID : 2
Format : AAC
Format/Info : Advanced Audio Codec
Format version : Version 4
Format profile : LC
Codec ID : 40
Duration : 6mn 53s
Bit rate mode : Variable
Bit rate : 150 Kbps
Maximum bit rate : 230 Kbps
Channel(s) : 2 channels
Channel positions : Front: L R
Sampling rate : 44.1 KHz
Compression mode : Lossy
Stream size : 7.39 MiB (3%)
Title : (C) 2007 Google Inc. v08.13.2007.
Encoded date : UTC 2011-05-01 02:16:02
Tagged date : UTC 2011-05-01 02:16:05

Скриншоты

Благодарности релизеру (0)

Торрент:

Статус:

Размер:

Зарегистрирован   [ 2011-05-07 18:45 ]

проверено

218 MB