Торренты   
 
 

 

Лабиринт страха 3Д / The Schock Labyrinth / Senritsu meikyu 3D (Такаши Шимицу) [2009 г., ужасы, триллер, BDRip 720p, OverUnder]

Рейтинг 3D:
6 голосов
7.8
Рейтинг фильма:
4 голосов
8.8
 
Вы должны быть авторизированы,
чтобы ставить оценки


-Лабиринт страха 3Д
Senritsu meikyû 3D
- Год выпуска: 2009
Страна: Япония
Жанр: ужасы, триллер
Продолжительность: 01:28:51
Перевод: Профессиональный (многоголосый, закадровый) [Лицензия]
-Режиссер: Такаши Шимицу
В ролях: Ай Маэда, Юя Ягира, Сузуки Матсуо, Мисако Ренбуцу, Рио Кацудзи, Сойчиро Масумото, Эрина Мизуно
-Описание: 10 лет назад компания одноклассников оставила Юки в «Лабиринте Страха», аттракционе местного Парка Развлечений. Спустя 10 лет она вернется за ними, чтобы отомстить…-Первый японский ужастик в 3D
- -Качество: 3D BDrip
Контейнер: MKV
Формат 3D: OverUnder / Вертикальная стереопара
Порядок ракурсов: Левый ракурс первый
Видео кодек: x264
Аудио кодек: AC3
Видео: 1280x1440 / MPEG4 Video (H264) / 23.976 fps / 8147 Kbps
Аудио#1: AC3 / 48 kHz / 5.1 / 640 kbps / 16 bit (Русский |"Вольга"|)
Аудио#2: AC3 / 48 kHz / 5.1 / 640 kbps / 16 bit (Японский |Оригинал|)
Субтитры: English
-

MediaInfo

General
Unique ID : 186577723154842173653577376519695481398 (0x8C5D8FF94FE3907B8E1691CFFC4DBA36)
Complete name : D:\Senritsu.Meikyû.3D.2009.BD3DRip.720p.OU.x264.AC3.3D-RuGroup.mkv
Format : Matroska
File size : 5.97 GiB
Duration : 1h 28mn
Overall bit rate : 9 618 Kbps
Movie name : Senritsu.Meikyû.3D.2009.BD3DRip.720p.OU.x264.AC3.3D-RuGroup
Encoded date : UTC 2011-05-08 14:12:05
Writing application : mkvmerge v2.9.9 ('Tutu') built on Nov 25 2009 21:13:32
Writing library : libebml v0.7.9 + libmatroska v0.8.1
Video
ID : 1
Format : AVC
Format/Info : Advanced Video Codec
Format profile : High@L4.0
Format settings, CABAC : Yes
Format settings, ReFrames : 3 frames
Codec ID : V_MPEG4/ISO/AVC
Duration : 1h 28mn
Bit rate : 8 147 Kbps
Width : 1 280 pixels
Height : 1 440 pixels
Display aspect ratio : 0.889
Frame rate : 23.976 fps
Color space : YUV
Chroma subsampling : 4:2:0
Bit depth : 8 bits
Scan type : Progressive
Bits/(Pixel*Frame) : 0.184
Stream size : 5.06 GiB (85%)
Title : Senritsu.Meikyû.3D.2009.BD3DRip.720p.OU.x264.AC3.3D-RuGroup
Writing library : x264 core 112 r1834 a51816a
Encoding settings : cabac=1 / ref=4 / deblock=1:-1:-1 / analyse=0x3:0x113 / me=umh / subme=8 / psy=1 / psy_rd=1.00:0.15 / mixed_ref=1 / me_range=16 / chroma_me=1 / trellis=1 / 8x8dct=1 / cqm=0 / deadzone=21,11 / fast_pskip=1 / chroma_qp_offset=-3 / threads=3 / sliced_threads=0 / nr=0 / decimate=1 / interlaced=0 / constrained_intra=0 / bframes=6 / b_pyramid=1 / b_adapt=2 / b_bias=0 / direct=3 / weightb=1 / open_gop=0 / weightp=2 / keyint=250 / keyint_min=23 / scenecut=40 / intra_refresh=0 / rc_lookahead=25 / rc=crf / mbtree=1 / crf=19.5 / qcomp=0.60 / qpmin=10 / qpmax=51 / qpstep=4 / ip_ratio=1.40 / aq=1:1.00
Audio #1
ID : 2
Format : AC-3
Format/Info : Audio Coding 3
Mode extension : CM (complete main)
Codec ID : A_AC3
Duration : 1h 28mn
Bit rate mode : Constant
Bit rate : 640 Kbps
Channel(s) : 6 channels
Channel positions : Front: L C R, Side: L R, LFE
Sampling rate : 48.0 KHz
Bit depth : 16 bits
Compression mode : Lossy
Stream size : 407 MiB (7%)
Title : Русский (Лицензия)
Language : Russian
Audio #2
ID : 3
Format : AC-3
Format/Info : Audio Coding 3
Mode extension : CM (complete main)
Codec ID : A_AC3
Duration : 1h 28mn
Bit rate mode : Constant
Bit rate : 640 Kbps
Channel(s) : 6 channels
Channel positions : Front: L C R, Side: L R, LFE
Sampling rate : 48.0 KHz
Bit depth : 16 bits
Compression mode : Lossy
Stream size : 407 MiB (7%)
Title : Japanese (Original)
Language : Japanese
Text
ID : 4
Format : UTF-8
Codec ID : S_TEXT/UTF8
Codec ID/Info : UTF-8 Plain Text
Title : English
Menu
00:00:00.000 : :Chapter01
00:05:46.054 : :Chapter02
00:15:55.788 : :Chapter03
00:26:29.171 : :Chapter04
00:37:00.301 : :Chapter05
00:45:22.720 : :Chapter06
00:57:36.953 : :Chapter07
01:08:17.176 : :Chapter08
01:16:02.850 : :Chapter09
01:24:30.107 : :Chapter10

Скриншоты


-
Благодарности релизеру (9)

Торрент:

Статус:

Размер:

Зарегистрирован   [ 2011-05-08 22:05 ]

проверено

5.97 GB

 
 Мнение о фильме (4)





нормальный фильмец
 

Прикольно.
 

Спасибо, посмотрим. Японские ужастики еще не видел
 

А что это за полосы черные слева и справа в треть экрана каждая, так задумано или какой-то косяк?