Торренты   
 
 


Мартышки в космосе: Ответный удар / Space Chimps 2: Zartog Strikes Back [2010 г, 1080p, Anamorph OverUnder]

Рейтинг 3D:
1 голосов
6.0
Рейтинг фильма:
1 голосов
8.0
 
Вы должны быть авторизированы,
чтобы ставить оценки


Мартышки в космосе: Ответный удар / Space Chimps 2: Zartog Strikes Back
Год выпуска: 2010
Страна: США (Prana Studios, Vanguard)
Жанр: Мультфильм, Фантастика, Комедия, Приключения
Продолжительность: 01:15:44
Перевод: Профессиональный (полное дублирование)
Субтитры: нет
Режиссер: Джон Х. Уильямс / John H. Williams
Роли озвучивали: Том Кенни, Зак Шэда, Патрик Варбертон, Шерил Хайнс, Карлос Алазраки, Лора Бэйли, Джон Ди Маджио, Стенли Туччи, Патрик Брин, Джейн Линч
Роли дублировали: Диомид Виноградов, Дмитрий Курта, Михаил Георгиу, Вероника Саркисова, Вячеслав Баранов, Лиза Мартиросова, Всеволод Кузнецов, Василий Дахненко, Радик Мухаметзянов, Елена Соловьева, Дмитрий Филимонов
Описание: Продолжение анимационной комедии 2008 года о космических приключениях мартышек. На этот раз к звездолетной обезьяньей команде, состоящей из Хэма, Луны и Титана, присоединяется новичок Комет, мечтающий стать настоящим космическим шимпанзе. Он отправляется на планету Мангор, где знакомится с инопланетянином Киловаттом. Когда злодей Зартог пытается захватить власть, наступает время для Комета проявить себя. Разумеется, не без помощи новых друзей.
Формат 3d: Anamorph OverUnder
Качество: BD-Rip
Контейнер: MKV
Видео: AVC / 1920х1080p / 23,976 fps / 6 948 Kbps
Аудио#1: Русский / AC3 / 6 ch / 640 Kbps / 48 KHz
Аудио#2: Английский / AC3 / 6 ch / 640 kbps / 48 KHz

MediaInfo

General
Complete name : F:\Downloads\SpaseChimps2.am.mkv
Format : Matroska
File size : 4.44 GiB
Duration : 1h 15mn
Overall bit rate : 8 395 Kbps
Encoded date : UTC 2011-05-09 07:30:52
Writing application : mkvmerge v3.4.0 ('Rapunzel') сборка от May 15 2010 09:38:20
Writing library : libebml v0.8.0 + libmatroska v0.9.0
Video
ID : 1
Format : AVC
Format/Info : Advanced Video Codec
Format profile : High@L4.1
Format settings, CABAC : Yes
Format settings, ReFrames : 4 frames
Codec ID : V_MPEG4/ISO/AVC
Duration : 1h 15mn
Bit rate : 6 948 Kbps
Width : 1 920 pixels
Height : 1 080 pixels
Display aspect ratio : 0.889
Original display aspect ratio : 16:9
Frame rate : 23.976 fps
Color space : YUV
Chroma subsampling : 4:2:0
Bit depth : 8 bits
Scan type : Progressive
Bits/(Pixel*Frame) : 0.140
Stream size : 3.68 GiB (83%)
Title : Rip by ash61
Writing library : x264 core 113 r1884 7313bb5
Encoding settings : cabac=1 / ref=4 / deblock=1:-1:-1 / analyse=0x3:0x113 / me=umh / subme=9 / psy=1 / psy_rd=1.00:0.15 / mixed_ref=1 / me_range=16 / chroma_me=1 / trellis=2 / 8x8dct=1 / cqm=0 / deadzone=21,11 / fast_pskip=1 / chroma_qp_offset=-3 / threads=3 / sliced_threads=0 / nr=0 / decimate=1 / interlaced=0 / constrained_intra=0 / bframes=4 / b_pyramid=2 / b_adapt=2 / b_bias=0 / direct=3 / weightb=1 / open_gop=0 / weightp=2 / keyint=250 / keyint_min=23 / scenecut=40 / intra_refresh=0 / rc_lookahead=40 / rc=crf / mbtree=1 / crf=18.0 / qcomp=0.60 / qpmin=0 / qpmax=69 / qpstep=4 / ip_ratio=1.40 / aq=1:1.00
Audio #1
ID : 2
Format : AC-3
Format/Info : Audio Coding 3
Mode extension : CM (complete main)
Codec ID : A_AC3
Duration : 1h 15mn
Bit rate mode : Constant
Bit rate : 640 Kbps
Channel(s) : 6 channels
Channel positions : Front: L C R, Side: L R, LFE
Sampling rate : 48.0 KHz
Bit depth : 16 bits
Compression mode : Lossy
Stream size : 347 MiB (8%)
Language : Russian
Audio #2
ID : 3
Format : AC-3
Format/Info : Audio Coding 3
Mode extension : CM (complete main)
Codec ID : A_AC3
Duration : 1h 15mn
Bit rate mode : Constant
Bit rate : 640 Kbps
Channel(s) : 6 channels
Channel positions : Front: L C R, Side: L R, LFE
Sampling rate : 48.0 KHz
Bit depth : 16 bits
Compression mode : Lossy
Stream size : 347 MiB (8%)
Language : English
Menu
00:00:00.000 : en: 01
00:07:08.845 : en: 02
00:10:42.767 : en: 03
00:15:14.205 : en: 04
00:26:03.103 : en: 05
00:33:46.650 : en: 06
00:43:51.295 : en: 07
00:49:43.814 : en: 08
00:58:52.154 : en: 09
01:03:11.830 : en: 10
01:07:49.065 : en: 11
01:11:06.429 : en: 12

Скриншоты

Лог кодирования

Остальные раздачи этого фильма (3)
Благодарности релизеру (7)

Торрент:

Статус:

Размер:

Зарегистрирован   [ 2011-05-09 12:36 ]

проверено

4.44 GB