Торренты   
 
 


Paul Carrack Live [1080p, Anamorph OverUnder]

Рейтинг 3D:
2 голосов
4.5
Рейтинг фильма:
2 голосов
4.5
 
Вы должны быть авторизированы,
чтобы ставить оценки


Paul Carrack Live
Жанр: Music, короткометражка
Продолжительность: 00:20:00
Перевод: Отсутствует
Описание: Проект Panasonic, снято в студии HD-Music.tv. В фильме 3 песни, между ними короткие рассказики Пола Каррэка.
Доп. информация: Пол Каррэк - участник группы Mike & the Mechanics (вокал, клавишные, автор песен). Основатель и руководитель группы - Mike Rutherford (гитарист и вокалист Genesis). Вторую песню наверняка большинство пользователей слышали, только не знали (как и я) кто исполняет.
Предупреждаю - основная часть снята в 3д, но стереобаза глазовыворачивающая, а некоторые планы сняты в 2д (похоже, что с автоконвертацией). Третий скриншот как раз сделан с 2д момента.
Формат 3d: Anamorph OverUnder
Релиз:
Качество: BD-Rip
Контейнер: MKV
Видео: AVC / 1920х1080p / 23,976 fps / 13.2 Mbps
Аудио: AC3 / 6 ch / 448 Kbps / 48 KHz

MediaInfo

General
Complete name : F:\Downloads\PaulCarrack.am.mkv
Format : Matroska
File size : 1.95 GiB
Duration : 20mn 0s
Overall bit rate : 14.0 Mbps
Encoded date : UTC 2011-05-09 09:11:52
Writing application : mkvmerge v3.4.0 ('Rapunzel') сборка от May 15 2010 09:38:20
Writing library : libebml v0.8.0 + libmatroska v0.9.0
Video
ID : 1
Format : AVC
Format/Info : Advanced Video Codec
Format profile : High@L4.1
Format settings, CABAC : Yes
Format settings, ReFrames : 4 frames
Format settings, GOP : M=1, N=11
Codec ID : V_MPEG4/ISO/AVC
Duration : 20mn 0s
Bit rate : 13.2 Mbps
Width : 1 920 pixels
Height : 1 080 pixels
Display aspect ratio : 0.889
Original display aspect ratio : 16:9
Frame rate : 23.976 fps
Color space : YUV
Chroma subsampling : 4:2:0
Bit depth : 8 bits
Scan type : Progressive
Bits/(Pixel*Frame) : 0.266
Stream size : 1.85 GiB (95%)
Writing library : x264 core 113 r1884 7313bb5
Encoding settings : cabac=1 / ref=4 / deblock=1:-1:-1 / analyse=0x3:0x113 / me=umh / subme=9 / psy=1 / psy_rd=1.00:0.15 / mixed_ref=1 / me_range=16 / chroma_me=1 / trellis=2 / 8x8dct=1 / cqm=0 / deadzone=21,11 / fast_pskip=1 / chroma_qp_offset=-3 / threads=3 / sliced_threads=0 / nr=0 / decimate=1 / interlaced=0 / constrained_intra=0 / bframes=5 / b_pyramid=2 / b_adapt=2 / b_bias=0 / direct=3 / weightb=1 / open_gop=0 / weightp=2 / keyint=250 / keyint_min=23 / scenecut=40 / intra_refresh=0 / rc_lookahead=40 / rc=crf / mbtree=1 / crf=18.0 / qcomp=0.60 / qpmin=0 / qpmax=69 / qpstep=4 / ip_ratio=1.40 / aq=1:1.00
Audio
ID : 2
Format : AC-3
Format/Info : Audio Coding 3
Mode extension : CM (complete main)
Codec ID : A_AC3
Duration : 20mn 0s
Bit rate mode : Constant
Bit rate : 448 Kbps
Channel(s) : 6 channels
Channel positions : Front: L C R, Side: L R, LFE
Sampling rate : 48.0 KHz
Bit depth : 16 bits
Compression mode : Lossy
Stream size : 64.1 MiB (3%)
Menu
00:00:00.000 : en: 1
00:05:12.354 : en: 2
00:11:12.046 : en: 3

Скриншоты

Лог кодирования

Благодарности релизеру (4)

Торрент:

Статус:

Размер:

Зарегистрирован   [ 2011-05-09 22:19 ]

проверено

1.95 GB