Торренты   
 
 


Шрам / Scar [2007 г, 720p, OverUnder]

Рейтинг 3D:
Пока никто не голосовал
Рейтинг фильма:
Пока никто не голосовал
 
Вы должны быть авторизированы,
чтобы ставить оценки


Шрам / Scar
Год выпуска: 2007
Страна: США
Жанр: Ужасы
Продолжительность: 01:16:25
Перевод: Профессиональный (полное дублирование)
Субтитры: нет
Режиссер: Джед Вейнтроб \ Jed Weintrob
В ролях: Анджела Беттис, Кирби Блисс Блэнтон, Девон Грайе, Бен Коттон, Кристофер Титус, Бриттни Уилсон, Моника Мар-Ли, Брэндон Джей МакЛарен, Кэри Фихэн, Эл Сапьенза...
Роли дублировали: Ольга Голованова, Вячеслав Баранов, Михаил Тихонов, Александр Рахленко, Татьяна Весёлкина
Описание: Городок Овид в штате Колорадо прославился на весь мир ужасной историей. 16 лет назад в городе объявился маньяк. Ночной охотник ловил подростков и заставлял их медленно и мучительно умирать в морозильных камерах подвала морга. Жертвы испытали все виды пыток, какие только можно вообразить. И только одной пленнице Джоан случайно удалось вырваться на свободу и убить чудовище. С тех пор она стала местной героиней.
В наши дни Джоан возвращается в Овид из другого штата. К ее ужасу, история прошлых лет повторяется. Теперь в списке похищенных ее племянница Олимпия. Джоан должна спасти девушку и навсегда избавить жителей города от адского наваждения…
Формат 3d: OverUnder
Качество: BD-Rip
Контейнер: MKV
Видео: AVC / 1280х1440p / 23,976 fps / 15.0 Mbps
Аудио#1: Русский / AC3 / 6 ch / 640 Kbps / 48 KHz
Аудио#2: Английский / AC3 / 6 ch / 640 kbps / 48 KHz

MediaInfo

General
Complete name : F:\Downloads\Scar.720p.mkv
Format : Matroska
File size : 8.88 GiB
Duration : 1h 16mn
Overall bit rate : 16.6 Mbps
Encoded date : UTC 2011-05-10 20:44:38
Writing application : mkvmerge v3.4.0 ('Rapunzel') сборка от May 15 2010 09:38:20
Writing library : libebml v0.8.0 + libmatroska v0.9.0
Video
ID : 1
Format : AVC
Format/Info : Advanced Video Codec
Format profile : High@L4.1
Format settings, CABAC : Yes
Format settings, ReFrames : 4 frames
Codec ID : V_MPEG4/ISO/AVC
Duration : 1h 16mn
Bit rate : 15.0 Mbps
Width : 1 280 pixels
Height : 1 440 pixels
Display aspect ratio : 0.889
Frame rate : 23.976 fps
Color space : YUV
Chroma subsampling : 4:2:0
Bit depth : 8 bits
Scan type : Progressive
Bits/(Pixel*Frame) : 0.340
Stream size : 8.02 GiB (90%)
Writing library : x264 core 113 r1884 7313bb5
Encoding settings : cabac=1 / ref=4 / deblock=1:-1:-1 / analyse=0x3:0x113 / me=umh / subme=9 / psy=1 / psy_rd=1.00:0.15 / mixed_ref=1 / me_range=16 / chroma_me=1 / trellis=2 / 8x8dct=1 / cqm=0 / deadzone=21,11 / fast_pskip=1 / chroma_qp_offset=-3 / threads=3 / sliced_threads=0 / nr=0 / decimate=1 / interlaced=0 / constrained_intra=0 / bframes=4 / b_pyramid=2 / b_adapt=2 / b_bias=0 / direct=3 / weightb=1 / open_gop=0 / weightp=2 / keyint=250 / keyint_min=23 / scenecut=40 / intra_refresh=0 / rc_lookahead=40 / rc=crf / mbtree=1 / crf=18.0 / qcomp=0.60 / qpmin=0 / qpmax=69 / qpstep=4 / ip_ratio=1.40 / aq=1:1.00
Audio #1
ID : 2
Format : AC-3
Format/Info : Audio Coding 3
Mode extension : CM (complete main)
Codec ID : A_AC3
Duration : 1h 16mn
Bit rate mode : Constant
Bit rate : 640 Kbps
Channel(s) : 6 channels
Channel positions : Front: L C R, Side: L R, LFE
Sampling rate : 48.0 KHz
Bit depth : 16 bits
Compression mode : Lossy
Stream size : 350 MiB (4%)
Language : Russian
Audio #2
ID : 3
Format : AC-3
Format/Info : Audio Coding 3
Mode extension : CM (complete main)
Codec ID : A_AC3
Duration : 1h 16mn
Bit rate mode : Constant
Bit rate : 640 Kbps
Channel(s) : 6 channels
Channel positions : Front: L C R, Side: L R, LFE
Sampling rate : 48.0 KHz
Bit depth : 16 bits
Compression mode : Lossy
Stream size : 350 MiB (4%)
Language : English
Menu
00:00:00.000 : en: 01
00:06:32.934 : en: 02
00:13:29.308 : en: 03
00:19:17.364 : en: 04
00:25:49.547 : en: 05
00:31:47.988 : en: 06
00:37:33.833 : en: 07
00:43:09.210 : en: 08
00:49:14.407 : en: 09
00:55:30.366 : en: 10
01:00:34.503 : en: 11
01:06:53.757 : en: 12
01:12:38.517 : en: 13

Скриншоты

Лог кодирования

Благодарности релизеру (1)

Торрент:

Статус:

Размер:

Зарегистрирован   [ 2011-05-11 01:17 ]

проверено

8.88 GB