Торренты   
 
 


Гномео и Джульетта / Gnomeo & Juliet (Келли Эсбёри / Kelly Asbury) [2011 г., Anamorph SideBySide]

Рейтинг 3D:
Пока никто не голосовал
Рейтинг фильма:
Пока никто не голосовал
 
Вы должны быть авторизированы,
чтобы ставить оценки


Гномео и Джульетта / Gnomeo & Juliet
Год выпуска: 2011
Страна: США, Великобритания
Жанр: Мультфильм, Фэнтези, Мелодрама, Комедия
Продолжительность: 01:23:49
Перевод: Любительский (одноголосый)
Режиссер: Келли Эсбёри / Kelly Asbury
В ролях: Джеймс МакЭвой, Эмили Блант, Эшли Дженсен, Майкл Кейн, Мэтт Лукас, Джим Каммингс, Мэгги Смит, Джейсон Стэтхэм, Оззи Осборн, Стефен Мерчант, Джули Уолтерс, Халк Хоган.
Описание: Гномы тоже имею право на любовь, право на трагедию. Новая вариация бессмертной пьесы У.Шекспира, повествующая о двух влюбленных, из враждующих кланов садовых и домашних гномов.
Формат 3d: Anamorph SideBySide
Порядок ракурсов: Параллельная пара
Видео: Video #0 : AVC at 9796 Кбит/сек Aspect : 1920 x 1080 (1.778) at 23.976 fps

Скриншоты

Медиа Инфо

Уникальный идентификатор : 214628594946022029145341561119216569627 (0xA177F6BB207E296F83F77620E9C10D1B)
Полное имя : D:\Gnomeo.and.Juliet.3D.H-SBS.Eng.DTS.H264-3D4U (1).mkv
Формат : Matroska
Размер файла : 6,08 Гбайт
Продолжительность : 1 ч. 23 м.
Общий поток : 10,4 Мбит/сек
Название фильма : Gnomio & Juliet - Encoded by 3D4U - www.3dblurayiso.com
Дата кодирования : UTC 2011-05-14 10:34:31
Программа кодирования : mkvmerge v4.0.0 ('The Stars were mine') сборка от Jun 11 2010 23:24:27
Библиотека кодирования : libebml v1.0.0 + libmatroska v1.0.0
Видео
Идентификатор : 1
Формат : AVC
Формат/Информация : Advanced Video Codec
Профиль формата : High@L4.1
Параметр CABAC формата : Да
Параметр ReFrames формата : 2 кадры
Идентификатор кодека : V_MPEG4/ISO/AVC
Продолжительность : 1 ч. 23 м.
Вид битрейта : Переменный
Битрейт : 9796 Кбит/сек
Максимальный битрейт : 15,0 Мбит/сек
Ширина : 1920 пикс.
Высота : 1080 пикс.
Соотношение сторон : 16:9
Частота кадров : 23,976 кадр/сек
Цветовое пространство : YUV
Подвыборка цветности : 4:2:0
Битовая глубина : 8 бит
Тип развёртки : Прогрессивная
Бит/(Пиксели*Кадры) : 0.197
Размер потока : 5,74 Гбайт (94%)
Язык : English
Аудио
Идентификатор : 2
Формат : AC-3
Формат/Информация : Audio Coding 3
Расширение режима : CM (complete main)
Идентификатор кодека : A_AC3
Продолжительность : 1 ч. 23 м.
Вид битрейта : Постоянный
Битрейт : 384 Кбит/сек
Канал(ы) : 6 канала(ов)
Расположение каналов : Front: L C R, Side: L R, LFE
Частота : 48,0 КГц
Битовая глубина : 16 бит
Метод сжатия : С потерями
Размер потока : 230 Мбайт (4%)
Язык : Русский
Благодарности релизеру (0)

Торрент:

Статус:

Размер:

Зарегистрирован   [ 2011-05-14 14:59 ]

проверено

6.08 GB