Торренты   
 
 

 

Видео-экскурсии по миру в 3D / 3D Destinations [1080i, Anamorph SideBySide]

Рейтинг 3D:
2 голосов
7.0
Рейтинг фильма:
2 голосов
8.0
 
Вы должны быть авторизированы,
чтобы ставить оценки


Видео-экскурсии по миру в 3D / 3D Destinations

Жанр: Видовой
Общая продолжительность: 01:00:21
(15:10 + 15:10 + 14:40 + 15:21)
Перевод: Отсутствует
Язык: Английский
Описание: Первая часть из серии Destinations 3d -
четыре видео-экскурсии:
1. Бангкок
2. Чиангмай (Ching-May, Thailand)
3. Тель-Авив
4. Венеция
Вторая часть
Третья часть
Четвёртая часть
Дополнительная информация: Красивые ролики, 3д в порядке.
Проверено на ТВ-ЮСБ Самсунг.
Формат 3d: Anamorph SideBySide
Порядок ракурсов: Параллельная пара
Качество: HDTV-Rip
Контейнер: ts
Видео: AVC / 1920х1080i / 25 fps / 7 264 Kbps
Аудио: mp2 / 2 ch / 384 Kbps / 48 KHz

MediaInfo первого файла (остальные практически идентичны)

General
ID : 1 (0x1)
Complete name : F:\Downloads\Destinations\Destinations3d.Bangkok.Thailand.ts
Format : MPEG-TS
Format/Info : Advanced Video Codec
File size : 873 MiB
Duration : 15mn 10s
Overall bit rate : 8 050 Kbps
Maximum Overall bit rate : 35.5 Mbps
Video
ID : 4113 (0x1011)
Menu ID : 1 (0x1)
Format : AVC
Format/Info : Advanced Video Codec
Format profile : Main@L4.0
Format settings, CABAC : Yes
Format settings, ReFrames : 4 frames
Codec ID : 27
Duration : 15mn 10s
Bit rate mode : Variable
Bit rate : 7 264 Kbps
Maximum bit rate : 40.0 Mbps
Width : 1 920 pixels
Height : 1 080 pixels
Display aspect ratio : 16:9
Frame rate : 25.000 fps
Standard : Component
Color space : YUV
Chroma subsampling : 4:2:0
Bit depth : 8 bits
Scan type : Interlaced
Scan order : Top Field First
Bits/(Pixel*Frame) : 0.140
Stream size : 788 MiB (90%)
Color primaries : BT.709-5, BT.1361, IEC 61966-2-4, SMPTE RP177
Transfer characteristics : BT.709-5, BT.1361
Matrix coefficients : BT.709-5, BT.1361, IEC 61966-2-4 709, SMPTE RP177
Audio
ID : 4352 (0x1100)
Menu ID : 1 (0x1)
Format : MPEG Audio
Format version : Version 1
Format profile : Layer 2
Codec ID : 4
Duration : 15mn 10s
Bit rate mode : Constant
Bit rate : 384 Kbps
Channel(s) : 2 channels
Sampling rate : 48.0 KHz
Compression mode : Lossy
Stream size : 41.7 MiB (5%)
Language : English

Скриншоты


Благодарности релизеру (4)

Торрент:

Статус:

Размер:

Зарегистрирован   [ 2011-09-04 20:10 ]

проверено

3.39 GB