Торренты   
 
 


Мартышки в космосе: Ответный удар / Space Chimps 2: Zartog Strikes Back (Джон Х. Уильямс / John H. Williams) [2010 г., 720p, Anaglyph, red'cyan]

Рейтинг 3D:
1 голосов
6.0
Рейтинг фильма:
1 голосов
8.0
 
Вы должны быть авторизированы,
чтобы ставить оценки


-Мартышки в космосе: Ответный ударSpace Chimps 2: Zartog Strikes Back- Год выпуска: 2010
Страна: США
Жанр: Мультфильм, Фантастика, Комедия, Приключения
Продолжительность: 01:15:44
Перевод: Профессиональный (полное дублирование)
Режиссер: Джон Х. Уильямс / John H. Williams
Роли озвучивали: Том Кенни, Зак Шэда, Патрик Варбертон, Шерил Хайнс, Карлос Алазраки, Лора Бэйли, Джон Ди Маджио, Стенли Туччи, Патрик Брин, Джейн Линч
Роли дублировали: Диомид Виноградов, Дмитрий Курта, Михаил Георгиу, Вероника Саркисова, Вячеслав Баранов, Лиза Мартиросова, Всеволод Кузнецов, Василий Дахненко, Радик Мухаметзянов, Елена Соловьева, Дмитрий Филимонов
Описание: Продолжение анимационной комедии 2008 года о космических приключениях мартышек. На этот раз к звездолетной обезьяньей команде, состоящей из Хэма, Луны и Титана, присоединяется новичок Комет, мечтающий стать настоящим космическим шимпанзе. Он отправляется на планету Мангор, где знакомится с инопланетянином Киловаттом. Когда злодей Зартог пытается захватить власть, наступает время для Комета проявить себя. Разумеется, не без помощи новых друзей.-Формат 3d: Anaglyph
Цвета очков:

Формат: MKV
Видео: AVC; 1280x720; 16:9; 23,976 кадр/сек; 2618 Кбит/сек
Аудио:
Russian; AC-3; 48,0 КГц; 640 Кбит/сек; 6ch(Front: L C R, Side: L R, LFE)
English; AC-3; 48,0 КГц; 640 Кбит/сек; 6ch(Front: L C R, Side: L R, LFE)

MediaInfo

Общее
Уникальный идентификатор : 222635477359078872557775362383750373606 (0xA77E088342BE9600951E67D40B3820E6)
Полное имя : SpaseChimps2_720p_AnRC.mkv
Формат : Matroska
Размер файла : 2,10 Гбайт
Продолжительность : 1 ч. 15 м.
Общий поток : 3977 Кбит/сек
Дата кодирования : UTC 2011-05-16 11:32:48
Программа кодирования : mkvmerge v3.4.0 ('Rapunzel') сборка от May 15 2010 09:38:20
Библиотека кодирования : libebml v0.8.0 + libmatroska v0.9.0
Видео
Идентификатор : 1
Формат : AVC
Формат/Информация : Advanced Video Codec
Профиль формата : High@L4.1
Параметр CABAC формата : Да
Параметр ReFrames формата : 4 кадра
Параметры GOP формата : M=1, N=48
Идентификатор кодека : V_MPEG4/ISO/AVC
Продолжительность : 1 ч. 15 м.
Битрейт : 2618 Кбит/сек
Ширина : 1280 пикс.
Высота : 720 пикс.
Соотношение сторон : 16:9
Частота кадров : 23,976 кадр/сек
Цветовое пространство : YUV
Подвыборка цветности : 4:2:0
Битовая глубина : 8 бит
Тип развёртки : Прогрессивная
Бит/(Пиксели*Кадры) : 0.118
Размер потока : 1,39 Гбайт (66%)
Заголовок : Space Chimps 2: Zartog Strikes Back
Библиотека кодирования : x264 core 115 r1947 b5a8ad7
Настройки программы : cabac=1 / ref=4 / deblock=1:-1:-1 / analyse=0x3:0x113 / me=umh / subme=10 / psy=1 / psy_rd=1.00:0.15 / mixed_ref=1 / me_range=16 / chroma_me=1 / trellis=2 / 8x8dct=1 / cqm=0 / deadzone=21,11 / fast_pskip=1 / chroma_qp_offset=-3 / threads=3 / sliced_threads=0 / nr=0 / decimate=1 / interlaced=0 / bluray_compat=0 / constrained_intra=0 / bframes=6 / b_pyramid=0 / b_adapt=2 / b_bias=0 / direct=3 / weightb=1 / open_gop=0 / weightp=2 / keyint=250 / keyint_min=23 / scenecut=40 / intra_refresh=0 / rc_lookahead=40 / rc=crf / mbtree=1 / crf=18.0 / qcomp=0.60 / qpmin=0 / qpmax=69 / qpstep=4 / ip_ratio=1.40 / aq=1:1.00
Аудио #1
Идентификатор : 2
Формат : AC-3
Формат/Информация : Audio Coding 3
Расширение режима : CM (complete main)
Идентификатор кодека : A_AC3
Продолжительность : 1 ч. 15 м.
Вид битрейта : Постоянный
Битрейт : 640 Кбит/сек
Каналы : 6 каналов
Расположение каналов : Front: L C R, Side: L R, LFE
Частота : 48,0 КГц
Битовая глубина : 16 бит
Метод сжатия : С потерями
Размер потока : 347 Мбайт (16%)
Заголовок : AC3, 6 ch, 640 Kbps, 48 KHz
Язык : Russian
Аудио #2
Идентификатор : 3
Формат : AC-3
Формат/Информация : Audio Coding 3
Расширение режима : CM (complete main)
Идентификатор кодека : A_AC3
Продолжительность : 1 ч. 15 м.
Вид битрейта : Постоянный
Битрейт : 640 Кбит/сек
Каналы : 6 каналов
Расположение каналов : Front: L C R, Side: L R, LFE
Частота : 48,0 КГц
Битовая глубина : 16 бит
Метод сжатия : С потерями
Размер потока : 347 Мбайт (16%)
Заголовок : AC3, 6 ch, 640 kbps, 48 KHz
Язык : English
Меню
00:00:00.000 : en:01
00:07:08.845 : en:02
00:10:42.767 : en:03
00:15:14.205 : en:04
00:26:03.103 : en:05
00:33:46.650 : en:06
00:43:51.295 : en:07
00:49:43.814 : en:08
00:58:52.154 : en:09
01:03:11.830 : en:10
01:07:49.065 : en:11
01:11:06.429 : en:12

Скриншоты







Мои раздачи в анаглифе
Остальные раздачи этого фильма (3)
Благодарности релизеру (0)

Торрент:

Статус:

Размер:

Зарегистрирован   [ 2011-05-16 16:55 ]

проверено

2.1 GB